<?xml version="1.0" standalone="no"?>
<!DOCTYPE svg PUBLIC "-//W3C//DTD SVG 1.1//EN" "http://www.w3.org/Graphics/SVG/1.1/DTD/svg11.dtd">
<svg xmlns="http://www.w3.org/2000/svg">
<defs >
<font id="LibreFranklin" horiz-adv-x="568" ><font-face
    font-family="Libre Franklin Thin"
    units-per-em="1000"
    panose-1="0 0 0 0 0 0 0 0 0 0"
    ascent="966"
    descent="-246"
    alphabetic="0" />
<glyph unicode=" " horiz-adv-x="214" />
<glyph unicode="!" horiz-adv-x="244" d="M173 16Q173 0 154 0H85Q70 0 70 14V99Q70 111 80 111H163Q173 111 173 100V16ZM151 194Q151 187 147 184T135 180H106Q99 180 96 183T93 192L72 731Q72 737 74 739T81 742H163Q173 742 172 732L151 194Z" />
<glyph unicode="&quot;" horiz-adv-x="409" d="M317 526Q315 519 312 516T300 512H276Q269 512 267 514T262 524L238 732Q237 737 240 739T247 742H333Q343 742 342 732L317 526ZM148 526Q146 519 143 516T131 512H107Q100 512 98 514T93 524L69 732Q68 737 71
739T78 742H164Q174 742 173 732L148 526Z" />
<glyph unicode="#" horiz-adv-x="603" d="M175 14Q174 6 171 3T160 0L132 4Q125 6 123 8T120 15L229 731Q230 736 233 739T239 742L273 737Q285 736 283 724L175 14ZM384 14Q382 6 379 3T369 0L341 4Q334 6 331 8T329 15L438 731Q439 736 441 739T448 742L482
737Q494 736 492 724L384 14ZM536 256Q536 242 520 242H47Q40 242 37 245T34 254V285Q34 296 43 296H526Q536 296 536 286V256ZM569 466Q569 452 553 452H80Q73 452 70 455T67 464V495Q67 506 76 506H559Q569 506 569 496V466Z" />
<glyph unicode="$" horiz-adv-x="605" d="M567 184Q567 131 541 89T467 21T357 -8Q350 -8 348 -10T345 -18V-74Q345 -87 331 -87H296Q283 -87 283 -77V-17Q283 -11 282 -10T274 -8Q191 -6 137 22T41 103Q29 116 39 125L72 156Q77 161 83 161T93 156Q127 113 169
89T274 62Q284 61 284 70V315Q284 323 279 329T264 339Q188 367 143 396T79 462T59 547Q59 601 85 643T159 712T271 747Q276 748 279 750T283 758V807Q283 811 285 813T292 816H332Q339 816 341 813T344 803V755Q344 748 354 747Q412 739 456 717T538 659Q549 651
539 641L504 605Q499 600 496 600T485 608Q464 633 430 651T354 676Q349 677 347 675T344 668V417Q344 407 356 403L394 390Q449 369 488 340T547 272T567 184V184ZM283 669Q283 681 272 678Q211 671 175 637T139 553Q139 528 150 507T189 466T263 427Q272 424
277 427T283 441V669ZM345 68Q345 61 354 62Q415 64 451 96T487 178Q487 224 457 254T360 311Q353 313 349 312T345 302V68V68Z" />
<glyph unicode="%" horiz-adv-x="916" d="M229 753Q279 753 317 727T378 654T401 541Q401 475 379 428T318 355T229 329Q179 329 140 354T78 427T55 541Q55 607 77 654T139 727T229 753V753ZM228 378Q280 378 307 423T335 540Q335 614 307 659T228 705Q194 705
171 684T134 626T121 540Q121 493 133 456T170 399T228 378V378ZM689 414Q739 414 777 388T838 315T861 202Q861 136 839 89T778 16T689 -10Q639 -10 600 15T538 88T515 202Q515 268 537 315T599 388T689 414V414ZM688 39Q721 39 745 60T782 117T795 201Q795 249
782 286T745 344T688 366Q656 366 632 345T594 286T581 201Q581 154 594 118T631 60T688 39V39ZM246 5Q240 -4 227 -4H201Q191 -4 190 2T193 15L677 743Q680 748 684 749T693 750H726Q731 750 733 748T732 739L246 5Z" />
<glyph unicode="&amp;" horiz-adv-x="778" d="M338 753Q391 753 433 735T501 684T526 603Q526 567 508 532T451 463T350 403Q343 399 342 396T347 386L503 204Q509 198 511 198T520 206Q538 223 557 247T595 297T627 348T647 390Q652 401 664 397L704 383Q709
381 712 376T713 366Q704 338 682 301T630 226T569 153Q564 148 564 145T571 136Q589 120 616 106T676 84T738 74Q753 74 753 61V18Q753 9 749 5T735 0Q696 0 653 11T571 41T504 81Q499 85 495 85T486 80Q438 39 383 17T262 -5Q159 -5 100 47T40 189Q40 248 75
298T193 397Q203 403 203 407T195 422Q162 457 145 493T128 569Q128 622 155 663T230 729T338 753V753ZM340 693Q301 693 274 676T231 632T216 573Q216 549 226 527T257 480L284 450Q287 447 292 447T302 448Q379 485 412 521T446 601Q446 647 415 670T340 693V693ZM269
343Q262 351 256 352T241 348Q191 323 161 282T131 193Q131 155 150 126T203 79T277 62Q320 62 361 80T433 125Q440 131 441 136T436 149L269 343V343Z" />
<glyph unicode="&apos;" horiz-adv-x="240" d="M148 526Q146 519 143 516T131 512H107Q100 512 98 514T93 524L69 732Q68 737 71 739T78 742H164Q174 742 173 732L148 526Z" />
<glyph unicode="(" horiz-adv-x="286" d="M259 742Q265 742 266 739T266 733Q217 635 184 519T150 284Q150 171 178 65T258 -155Q260 -158 259 -161T251 -165H214Q207 -165 202 -158Q161 -87 131 -18T84 125T68 285Q68 410 107 525T209 734Q216 742 225 742H259V742Z" />
<glyph unicode=")" horiz-adv-x="286" d="M26 742V742H60Q71 742 77 734Q139 640 178 525T218 285Q218 200 202 126T155 -18T84 -158Q79 -165 72 -165H35Q29 -165 28 -162T28 -155Q81 -42 108 64T135 284Q135 403 103 519T20 733Q18 736 19 739T26 742Z" />
<glyph unicode="*" horiz-adv-x="380" d="M197 530Q196 532 195 532T192 530L117 411Q115 408 111 408T104 410L69 434Q62 439 68 447L153 553Q154 556 154 558T149 561L33 594Q26 596 29 606L42 643Q46 651 53 647L163 603Q166 602 168 603T171 608L162 734Q162
737 164 739T171 742H218Q222 742 224 740T226 734L218 608Q218 600 224 603L337 651Q346 655 348 646L359 611Q362 601 354 599L240 561Q238 560 238 558T238 553L320 453Q322 449 322 445T316 437L284 415Q279 412 275 412T269 415L197 530Z" />
<glyph unicode="+" horiz-adv-x="557" d="M496 353Q496 340 480 340L75 339Q68 339 65 342T62 351V394Q62 406 71 406H486Q496 406 496 396V353ZM260 156Q246 156 246 172L245 577Q245 585 248 587T257 590H300Q312 590 312 581L313 166Q313 156 303 156H260Z" />
<glyph unicode="," horiz-adv-x="212" d="M52 -143Q47 -143 45 -139T45 -128L90 -16Q97 0 82 0H69Q56 0 56 12V101Q56 112 65 112H149Q159 112 159 102V20Q159 14 156 8L83 -132Q80 -137 75 -140T63 -143H52V-143Z" />
<glyph unicode="-" horiz-adv-x="381" d="M319 245Q319 231 302 231H75Q68 231 65 233T62 243V287Q62 298 71 298L309 299Q319 299 319 289V245Z" />
<glyph unicode="." horiz-adv-x="209" d="M155 16Q155 0 137 0H67Q52 0 52 14V100Q52 113 63 113H145Q155 113 155 101V16Z" />
<glyph unicode="/" horiz-adv-x="342" d="M21 -43Q9 -43 13 -35L263 733Q266 742 276 742H320Q333 742 328 726L82 -31Q80 -38 76 -40T64 -43H21V-43Z" />
<glyph unicode="0" horiz-adv-x="688" d="M345 752Q404 752 454 728T542 654T601 534T622 369Q622 245 586 161T486 34T344 -9Q264 -9 201 34T102 161T66 368Q66 461 87 532T146 653T235 727T345 752V752ZM345 64Q400 64 440 95T502 193T524 369Q524 479 502 547T439
647T344 679Q290 679 250 647T187 547T164 369Q164 261 186 194T250 95T345 64V64Z" />
<glyph unicode="1" horiz-adv-x="465" d="M412 76Q423 76 423 66V10Q423 7 421 4T412 0H61Q50 0 50 10V66Q50 76 61 76H187Q195 76 195 81V631Q195 641 186 639L62 593Q49 590 49 605V645Q49 652 51 654T59 660L207 734Q217 739 223 740T237 742H280Q291 742 291
730V83Q291 76 297 76H412V76Z" />
<glyph unicode="2" horiz-adv-x="599" d="M289 311Q331 351 360 382T406 441T432 494T441 547Q441 590 419 619T364 662T293 677Q264 677 233 668T174 636T122 578Q120 574 115 573T102 576L58 602Q51 607 51 612T54 624Q100 691 165 721T301 752Q364 752 417
729T502 660T534 544Q534 500 519 461T468 380T373 282L172 93Q166 89 167 85T178 81H529Q542 81 542 70V12Q542 6 540 3T529 0H65Q56 0 53 3T49 16V57Q49 64 50 69T58 82T76 99L289 311Z" />
<glyph unicode="3" horiz-adv-x="641" d="M77 638Q70 645 77 653Q108 687 144 709T222 741T308 752Q386 752 441 728T527 661T558 564Q558 510 525 467T431 402Q420 398 420 395T431 388Q472 377 506 352T561 289T581 205Q581 143 549 94T454 18T295 -10Q245 -10
200 1T117 37T45 96Q41 101 42 105T48 113L91 147Q98 152 101 151T107 147Q137 116 167 98T230 72T302 63Q390 63 438 102T486 202Q486 250 459 283T389 333T298 350L209 351Q197 351 197 361V413Q197 422 209 423L281 424Q333 424 374 442T440 490T464 560Q464
594 444 621T389 664T309 680Q257 680 213 660T130 603Q126 598 122 598T112 603L77 638V638Z" />
<glyph unicode="4" horiz-adv-x="649" d="M386 731Q391 737 396 739T411 742H478Q490 742 490 730V280Q490 271 498 271H592Q606 271 606 261V212Q606 199 592 199H499Q490 199 490 189V15Q490 0 474 0H406Q393 0 393 13V192Q393 199 384 199H60Q45 199 45 212V263Q45
270 49 277T61 296L386 731V731ZM382 271Q391 271 391 278V611Q391 623 388 624T377 615L133 284Q123 271 140 271H382Z" />
<glyph unicode="5" horiz-adv-x="654" d="M544 742Q554 742 557 739T559 727L555 673Q554 666 553 664T541 662H201Q189 662 189 651L171 434Q170 427 174 424T183 422Q220 441 257 455T349 470Q415 470 472 446T563 372T598 243Q598 163 562 107T461 20T313 -10Q237
-10 170 16T55 94Q51 100 51 104T57 114L100 149Q108 155 117 146Q144 121 170 102T227 73T301 62Q366 62 411 85T480 148T504 240Q504 294 481 328T420 380T334 397Q281 397 239 378T162 338Q154 334 152 335T144 339L95 367Q86 372 86 374T88 389L115 728Q116
737 119 739T137 742H544Z" />
<glyph unicode="6" horiz-adv-x="661" d="M369 751Q407 751 437 743T491 721T533 690T564 654Q566 650 566 646T561 638L504 615Q499 612 495 614T489 621Q467 647 440 663T370 679Q298 679 252 644T183 549T161 412Q161 396 164 391T179 392Q217 411 261 427T364
443Q441 443 495 415T578 337T607 226Q607 156 573 103T480 20T349 -9Q261 -9 198 34T100 160T66 360Q66 482 102 569T207 704T369 751V751ZM353 373Q327 373 295 367T233 350T183 327Q171 319 167 311T163 284Q163 248 174 210T208 137T266 82T349 61Q396 61 432
82T490 140T512 222Q512 264 493 298T438 353T353 373V373Z" />
<glyph unicode="7" horiz-adv-x="599" d="M540 742Q548 742 552 738T555 730L554 694Q554 686 550 677T540 658Q500 598 463 529T393 387T336 246T293 119T270 19Q268 0 255 0H176Q160 0 164 17Q178 73 201 143T259 295T341 466T447 648Q451 654 450 658T440 662H53Q41
662 41 674L48 732Q49 742 63 742H540Z" />
<glyph unicode="8" horiz-adv-x="668" d="M333 752Q406 752 461 727T547 655T578 548Q578 501 554 464T477 390Q462 380 476 374Q522 356 551 330T596 271T611 197Q611 134 576 87T477 15T330 -10Q248 -10 187 13T94 79T61 184Q61 237 87 279T175 360Q187 367
187 371T176 382Q148 398 127 420T93 471T81 537Q81 598 112 646T201 723T333 752V752ZM334 682Q289 682 252 664T194 616T172 545Q172 454 275 431L378 407Q392 403 411 414T450 446T481 494T493 549Q493 608 450 645T334 682V682ZM335 60Q418 60 467 96T516 193Q516
239 491 268T410 310L280 342Q265 346 243 337T199 307T162 258T146 195Q146 131 194 96T335 60V60Z" />
<glyph unicode="9" horiz-adv-x="658" d="M292 -9Q254 -9 223 -1T166 21T123 52T91 88Q89 92 89 96T94 104L151 127Q156 130 159 128T166 121Q187 95 217 79T292 63Q363 63 408 98T474 193T496 330Q496 347 494 351T479 350Q441 331 399 315T296 299Q221 299 167
327T84 405T55 516Q55 587 89 640T182 722T313 751Q399 751 461 708T558 582T592 382Q592 260 556 173T453 38T292 -9V-9ZM307 369Q336 369 367 375T427 394T476 420Q488 428 492 436T496 463Q496 498 485 536T452 607T395 660T313 681Q267 681 230 660T172 603T150
520Q150 478 169 444T224 389T307 369V369Z" />
<glyph unicode=":" horiz-adv-x="209" d="M155 411Q155 395 137 395H67Q52 395 52 410V494Q52 507 63 507H145Q155 507 155 496V411ZM155 19Q155 3 137 3H67Q52 3 52 17V102Q52 114 63 114H145Q155 114 155 103V19Z" />
<glyph unicode=";" horiz-adv-x="229" d="M52 -144Q47 -144 45 -140T45 -130L90 -16Q96 0 82 0H69Q56 0 56 12V101Q56 112 65 112H149Q159 112 159 102V20Q159 14 156 8L83 -133Q80 -138 75 -141T63 -144H52V-144ZM67 393Q52 393 52 408V493Q52 506 63 506H145Q155
506 155 495V409Q155 393 137 393H67V393Z" />
<glyph unicode="&lt;" horiz-adv-x="544" d="M477 173Q477 162 471 158T455 158L67 310Q60 313 57 317T53 327V383Q53 391 56 394T67 400L456 554Q466 559 472 555T478 541V496Q478 482 456 473L155 355L456 237Q467 233 472 228T477 214V173Z" />
<glyph unicode="=" horiz-adv-x="557" d="M496 452Q496 439 480 439L75 438Q68 438 65 441T62 450V493Q62 504 71 504L486 505Q496 505 496 495V452ZM496 227Q496 213 480 213L75 212Q68 212 65 215T62 224V267Q62 279 71 279H486Q496 279 496 270V227Z" />
<glyph unicode="&gt;" horiz-adv-x="544" d="M67 214Q67 223 72 228T88 237L389 355L88 473Q66 482 66 496V541Q66 551 72 555T88 554L477 400Q484 398 487 395T491 383V327Q491 321 487 317T477 310L89 158Q79 154 73 158T67 173V214V214Z" />
<glyph unicode="?" horiz-adv-x="523" d="M298 16Q298 0 279 0H209Q201 0 198 3T195 14V99Q195 111 205 111H288Q298 111 298 100V16ZM34 604Q29 606 28 610T29 618Q61 680 123 716T265 752Q333 752 383 729T461 666T489 573Q489 522 468 485T417 416T356 353T304
284T283 195Q283 190 280 187T271 183H223Q210 183 210 197Q210 254 229 295T277 370T334 434T382 496T402 570Q402 623 364 654T264 686Q231 686 198 674T140 640T103 592Q102 588 99 587T91 587L34 604Z" />
<glyph unicode="@" horiz-adv-x="834" d="M656 -46Q614 -76 557 -94T435 -113Q344 -113 272 -84T150 -4T74 116T47 261Q47 342 75 414T157 542T285 629T449 661Q514 661 577 643T691 585T772 485T803 339Q803 264 778 206T709 114T609 81Q570 81 549 94T519 134Q518
141 516 141T508 135Q486 106 452 87T368 67Q330 67 298 88T247 150T227 243Q227 307 252 359T320 443T421 475Q463 475 491 458T537 411Q538 410 540 410T544 415L551 443Q552 449 559 449H604Q613 449 611 442L574 220Q566 176 577 159T614 141Q647 141 674 164T719
230T736 333Q736 407 711 458T645 541T552 587T449 602Q368 602 306 575T201 501T136 392T114 260Q114 194 135 137T199 36T303 -31T448 -56Q491 -56 521 -49T575 -28T623 1Q636 10 643 0L663 -26Q668 -33 665 -37T656 -46V-46ZM300 248Q300 194 321 162T382 129Q415
129 443 148T491 200T515 271Q522 317 510 349T476 397T425 413Q388 413 360 391T316 331T300 248V248Z" />
<glyph unicode="A" horiz-adv-x="727" d="M55 0Q49 0 47 4T46 17L305 728Q308 735 312 738T325 742H403Q421 742 426 727L682 17Q684 11 682 6T672 0H601Q589 0 585 10L516 204Q514 208 512 210T504 212H213Q204 212 201 204L130 9Q129 5 126 3T115 0H55V0ZM478
288Q490 288 486 301L366 630Q362 639 359 639T352 630L230 299Q225 288 236 288H478Z" />
<glyph unicode="B" horiz-adv-x="699" d="M109 0Q103 0 100 3T97 12V728Q97 735 100 738T110 742H341Q474 742 546 693T619 550Q619 490 588 449T488 383Q484 382 484 379T488 375Q560 357 598 314T637 198Q637 98 562 49T348 0H109V0ZM343 70Q441 70 489 101T537
201Q537 250 513 280T448 325T354 339H207Q193 339 193 327V84Q193 70 202 70H343ZM354 411Q384 411 414 417T468 437T507 476T522 539Q522 607 473 639T341 672H206Q193 672 193 660V424Q193 411 202 411H354Z" />
<glyph unicode="C" horiz-adv-x="707" d="M378 752Q428 752 474 736T558 691T619 626T649 547Q651 538 650 535T642 532L567 526Q562 525 560 528T557 536Q543 600 497 639T381 679Q277 679 221 602T165 370Q165 220 220 143T386 66Q457 66 504 100T581 209Q584
215 593 213L652 199Q655 198 657 195T657 185Q649 156 633 128T592 76T536 32T466 1T382 -10Q283 -10 212 36T103 168T65 372Q65 490 102 575T210 706T378 752V752Z" />
<glyph unicode="D" horiz-adv-x="722" d="M112 742Q119 742 141 742T189 742T237 741T268 741Q407 739 492 697T617 575T657 377Q657 252 614 168T482 42T258 0H111Q97 0 97 16V728Q97 735 100 738T112 742V742ZM203 669Q193 669 193 655V83Q193 72 205 72H243Q354
72 423 101T524 197T557 372Q557 486 524 550T422 642T248 669H203V669Z" />
<glyph unicode="E" horiz-adv-x="628" d="M97 728Q97 742 109 742H558Q568 742 568 731V680Q568 668 555 668H206Q193 668 193 656V422Q193 411 204 411H463Q474 411 474 400V347Q474 343 472 341T463 338H204Q193 338 193 327V84Q193 74 203 74H570Q581 74 581
64V11Q581 6 579 3T570 0H111Q97 0 97 14V728V728Z" />
<glyph unicode="F" horiz-adv-x="601" d="M97 728Q97 742 109 742H549Q559 742 559 731V680Q559 668 546 668H206Q193 668 193 656V410Q193 399 204 399H471Q482 399 482 389V336Q482 327 471 327H204Q193 327 193 316V13Q193 0 179 0H111Q103 0 100 3T97 14V728V728Z" />
<glyph unicode="G" horiz-adv-x="739" d="M375 -10Q279 -10 209 35T102 165T65 368Q65 489 104 575T214 706T379 752Q449 752 507 724T604 650T651 552Q652 544 651 541T643 536L571 525Q566 524 564 526T560 535Q553 575 528 607T465 659T378 679Q310 679 262
645T190 542T165 374Q165 270 189 201T262 97T380 63Q429 63 465 79T525 123T562 182T576 244L577 304Q579 314 567 314H404Q398 314 396 316T393 325V368Q393 377 403 377L651 376Q658 376 662 373T666 364V13Q666 6 663 3T654 0H631Q624 0 620 2T613 12L602 105Q601
109 599 109T593 104Q574 74 545 48T474 6T375 -10V-10Z" />
<glyph unicode="H" horiz-adv-x="735" d="M201 347Q193 347 193 339V15Q193 0 176 0H111Q103 0 100 3T97 14V728Q97 742 109 742H181Q193 742 193 729V435Q193 423 204 423H532Q542 423 542 435V730Q542 742 553 742H626Q638 742 638 728V14Q638 7 635 4T624 0H559Q542
0 542 15V338Q542 347 533 347H201Z" />
<glyph unicode="I" horiz-adv-x="290" d="M181 742Q193 742 193 729V17Q193 7 189 4T175 0H112Q103 0 100 3T97 14V728Q97 742 109 742H181Z" />
<glyph unicode="J" horiz-adv-x="418" d="M325 163Q325 77 288 34T165 -10Q126 -10 96 -2T53 11Q47 14 44 18T41 30L50 84Q52 96 63 93Q78 87 95 80T145 73Q190 73 209 97T229 185V729Q229 742 241 742H314Q325 742 325 729V163V163Z" />
<glyph unicode="K" horiz-adv-x="701" d="M657 14Q660 8 659 4T651 0H569Q555 0 551 9L330 378Q324 387 315 377L200 246Q193 238 193 228V15Q193 0 176 0H112Q104 0 101 3T97 13V730Q97 742 108 742H182Q193 742 193 730V363Q193 357 195 357T202 361L530 733Q534
738 538 740T550 742H619Q628 742 630 738T627 728L394 468Q390 462 394 455L657 14V14Z" />
<glyph unicode="L" horiz-adv-x="602" d="M97 728Q97 742 109 742H181Q193 742 193 729V84Q193 74 203 74H549Q561 74 561 64V11Q561 6 558 3T549 0H111Q103 0 100 3T97 14V728V728Z" />
<glyph unicode="M" horiz-adv-x="906" d="M111 0Q97 0 97 15V728Q97 742 109 742H205Q213 742 216 740T222 731L444 158Q448 149 452 149T460 159L682 729Q686 742 697 742H798Q809 742 809 729V15Q809 0 794 0H728Q720 0 717 3T713 13V585Q713 590 711 590T708
585L488 13Q483 0 469 0H421Q405 0 401 12L184 579Q182 584 181 584T179 579V13Q179 6 176 3T165 0H111V0Z" />
<glyph unicode="N" horiz-adv-x="757" d="M649 742Q660 742 660 730V12Q660 6 657 3T647 0H598Q592 0 587 1T577 8L191 569Q186 576 183 575T180 568V13Q180 0 166 0H110Q97 0 97 13V728Q97 742 110 742H167Q175 742 179 741T188 732L563 183Q569 176 573 178T578
186V730Q578 742 590 742H649Z" />
<glyph unicode="O" horiz-adv-x="764" d="M382 -10Q284 -10 213 34T103 162T65 368Q65 490 104 576T214 707T383 752Q481 752 551 707T660 577T699 369Q699 248 661 164T552 35T382 -10V-10ZM384 63Q492 63 545 137T599 368Q599 527 545 603T383 679Q275 679 220
603T165 368Q165 213 220 138T384 63V63Z" />
<glyph unicode="P" horiz-adv-x="690" d="M636 526Q636 452 602 404T509 333T372 310H202Q193 310 193 301V15Q193 0 178 0H110Q103 0 100 3T97 13V728Q97 742 109 742H361Q440 742 502 720T600 650T636 526V526ZM538 529Q538 580 516 611T453 655T356 669H206Q193
669 193 657V397Q193 383 202 383H363Q442 383 490 418T538 529V529Z" />
<glyph unicode="Q" horiz-adv-x="765" d="M65 369Q65 492 103 577T213 707T382 752Q480 752 551 708T661 578T699 369Q699 246 663 167T559 42Q555 38 555 33Q555 21 573 3T620 -30T682 -50Q689 -51 690 -54T692 -59V-106Q692 -117 686 -120T665 -124Q621 -124
572 -98T476 -6Q471 0 461 -2Q442 -6 422 -8T382 -10Q285 -10 214 33T104 161T65 369V369ZM165 367Q165 211 220 137T382 63Q490 63 544 137T599 368Q599 524 545 601T382 679Q274 679 220 602T165 367V367Z" />
<glyph unicode="R" horiz-adv-x="696" d="M627 19Q630 12 627 6T616 0H543Q532 0 527 12L398 327Q393 338 374 338H205Q198 338 196 335T193 327V16Q193 0 176 0H111Q103 0 100 3T97 13V728Q97 742 109 742H388Q506 742 571 694T637 550Q637 493 615 454T560 391T491
356Q483 355 487 346L627 19V19ZM360 408Q448 408 492 440T537 541Q537 608 498 640T383 672H207Q193 672 193 661V421Q193 408 202 408H360V408Z" />
<glyph unicode="S" horiz-adv-x="641" d="M498 604Q472 635 431 657T328 679Q253 679 210 646T167 554Q167 538 174 517T205 476T274 440L419 392Q510 362 548 313T586 196Q586 132 554 86T463 15T321 -10Q261 -10 210 4T120 46T52 115Q47 122 48 127T58 139L94
164Q104 170 109 170T119 164Q146 130 172 108T232 74T317 63Q396 63 445 91T494 186Q494 211 484 231T450 269T381 304L229 356Q174 375 140 405T91 471T75 545Q75 608 107 654T195 726T328 752Q379 752 421 740T499 706T562 653Q566 649 567 644T562 634L516
598Q511 595 508 596T498 604V604Z" />
<glyph unicode="T" horiz-adv-x="645" d="M42 731Q42 736 44 739T54 742H592Q598 742 601 739T604 731V679Q604 669 592 669H389Q378 669 378 659V13Q378 0 366 0H294Q282 0 282 13V658Q282 669 272 669H54Q42 669 42 679V731Z" />
<glyph unicode="U" horiz-adv-x="709" d="M622 247Q622 158 592 101T501 17T355 -10Q261 -10 202 20T115 111T87 264V728Q87 742 99 742H171Q183 742 183 729V243Q183 152 228 108T361 64Q419 64 459 83T520 143T541 246V729Q541 742 552 742H611Q622 742 622
730V247V247Z" />
<glyph unicode="V" horiz-adv-x="707" d="M651 742Q658 742 661 738T661 727L408 15Q403 0 386 0H318Q298 0 294 14L46 727Q44 733 47 737T57 742H126Q139 742 143 730L351 124Q359 105 366 125L577 731Q580 742 592 742H651V742Z" />
<glyph unicode="W" horiz-adv-x="1045" d="M985 742Q994 742 997 737T999 724L793 15Q788 0 771 0H710Q691 0 687 14L527 581Q526 586 524 586T520 580L358 15Q353 0 336 0H274Q255 0 251 14L48 724Q46 732 49 737T62 742H126Q134 742 138 740T143 730L306 148Q309
137 312 137T318 147L484 731Q486 735 489 738T502 742H559Q568 742 571 740T577 730L741 145Q744 136 747 136T753 145L918 731Q919 737 923 739T935 742H985V742Z" />
<glyph unicode="X" horiz-adv-x="688" d="M638 21Q647 9 644 5T631 0H555Q544 0 539 8L349 294Q343 304 339 304T326 292L139 8Q137 4 132 2T122 0H56Q48 0 45 4T51 21L280 366Q285 373 285 378T279 391L56 727Q53 731 54 736T62 742H143Q151 742 154 740T160
733L335 466Q340 459 344 459T354 466L529 733Q532 738 535 740T545 742H618Q625 742 625 738T623 729L401 398Q397 392 397 388T401 376L638 21V21Z" />
<glyph unicode="Y" horiz-adv-x="675" d="M624 742Q631 742 633 738T632 728L394 330Q390 324 389 318T388 297V17Q388 0 369 0H309Q299 0 296 4T293 15V293Q293 303 291 308T285 320L44 726Q40 733 42 737T55 742H127Q136 742 140 740T148 730L334 410Q340 399
345 399T356 408L541 730Q545 738 549 740T562 742H624V742Z" />
<glyph unicode="Z" horiz-adv-x="631" d="M60 0Q53 0 50 2T47 12V35Q47 43 49 47T58 62L447 658Q453 668 442 668H74Q68 668 66 670T63 679V732Q63 742 73 742H573Q582 742 582 732V706Q582 700 580 697T574 686L179 84Q176 79 177 77T183 75H570Q581 75 581 66V11Q581
6 578 3T569 0H60V0Z" />
<glyph unicode="[" horiz-adv-x="287" d="M89 732Q89 742 102 742H263Q272 742 272 735V694Q272 686 263 686H177Q165 686 165 673L164 -99Q164 -105 166 -107T175 -109H260Q271 -109 271 -119V-154Q271 -165 260 -165H105Q90 -165 90 -152L89 732V732Z" />
<glyph unicode="\" horiz-adv-x="342" d="M277 -43Q270 -43 266 -41T259 -31L13 726Q8 742 21 742H65Q76 742 78 733L329 -35Q332 -43 321 -43H277V-43Z" />
<glyph unicode="]" horiz-adv-x="287" d="M197 732V732L196 -152Q196 -165 182 -165H26Q16 -165 16 -154V-119Q16 -109 26 -109H112Q118 -109 120 -107T122 -99V673Q122 686 110 686H24Q15 686 15 694V735Q15 742 24 742H184Q197 742 197 732Z" />
<glyph unicode="^" horiz-adv-x="476" d="M244 423Q241 429 237 429T230 423L118 141Q116 136 113 135T103 134H58Q45 134 51 148L197 504Q206 527 221 535T251 537T277 504L424 145Q428 132 415 132H372Q366 132 362 134T355 141L244 423Z" />
<glyph unicode="_" horiz-adv-x="518" d="M456 -104Q456 -117 440 -117L75 -118Q68 -118 65 -115T62 -106V-62Q62 -50 71 -50H446Q456 -50 456 -60V-104Z" />
<glyph unicode="`" horiz-adv-x="285" d="M26 746Q30 754 38 751L270 658Q278 655 274 644L266 622Q264 616 261 615T250 614L22 683Q7 688 11 701L26 746V746Z" />
<glyph unicode="a" horiz-adv-x="548" d="M382 64Q345 28 302 9T204 -10Q126 -10 82 30T37 135Q37 188 67 226T156 287T301 315L379 321Q385 322 390 325T395 336V363Q395 417 362 448T271 480Q227 480 192 460T128 400Q124 395 122 394T113 394L59 412Q56 414
55 417T57 428Q87 480 141 510T275 540Q342 540 386 520T453 461T476 369V15Q476 6 473 3T463 0H412Q405 0 402 4T398 16L397 62Q394 76 382 64V64ZM395 254Q395 271 381 270L315 264Q269 262 233 253T172 228T134 193T121 145Q121 101 151 77T234 52Q266 52 295
63T347 93Q370 112 382 132T395 171V254V254Z" />
<glyph unicode="b" horiz-adv-x="599" d="M93 0Q84 0 81 4T77 16V728Q77 742 89 742H151Q161 742 161 728V483Q161 472 165 472T176 477Q185 486 205 501T258 528T336 540Q409 540 456 504T526 407T550 268Q550 140 490 65T322 -10Q276 -10 244 4T190 37T159 69Q155
74 152 73T148 66L143 16Q141 0 125 0H93ZM161 179Q161 143 181 114T235 67T304 50Q349 50 385 72T442 143T463 266Q463 368 424 423T311 479Q264 479 226 458T161 405V179Z" />
<glyph unicode="c" horiz-adv-x="542" d="M297 540Q349 540 388 524T456 479T504 416Q510 404 499 401L444 388Q437 385 431 394Q411 423 392 441T350 468T302 478Q251 478 213 453T153 379T132 265Q132 198 153 150T213 77T304 52Q352 52 387 76T451 146Q454
151 456 151T464 150L507 134Q514 131 511 121Q496 95 476 71T430 29T370 1T297 -10Q223 -10 167 24T78 120T46 263Q46 345 78 407T167 504T297 540V540Z" />
<glyph unicode="d" horiz-adv-x="599" d="M454 0Q447 0 444 3T440 14V56Q440 64 437 65T427 60Q416 50 396 33T344 3T270 -10Q207 -10 157 20T78 109T48 257Q48 342 77 405T160 504T282 540Q331 540 364 524T422 487Q431 480 434 481T438 494V729Q438 742 449
742H510Q521 742 521 729V16Q521 7 518 4T505 0H454V0ZM437 413Q406 444 374 461T302 478Q254 478 216 454T156 380T134 260Q134 187 156 141T215 73T296 51Q337 51 368 70T418 117T437 172V413V413Z" />
<glyph unicode="e" horiz-adv-x="581" d="M133 232Q133 183 156 143T219 78T308 54Q358 54 397 74T464 137Q468 141 470 141T478 140L520 119Q529 114 522 105Q495 65 463 40T390 2T300 -10Q226 -10 169 24T79 119T46 260Q46 347 79 409T170 506T299 540Q372 540
426 508T510 415T540 268Q540 261 539 254T525 247H142Q138 247 136 243T133 232V232ZM439 302Q450 302 453 304T456 316Q456 359 438 396T385 457T301 480Q247 480 210 455T154 388T135 302H439Z" />
<glyph unicode="f" horiz-adv-x="379" d="M345 530Q350 530 352 527T355 520V477Q355 467 345 467H231Q223 467 223 459V14Q223 0 211 0H150Q139 0 139 13V460Q139 467 132 467H34Q24 467 24 477V520Q24 524 26 527T35 530H130Q139 530 139 540V613Q139 676 170
709T264 742H347Q360 742 360 730V691Q360 686 358 684T349 681H279Q248 681 235 662T221 609V539Q221 530 230 530H345V530Z" />
<glyph unicode="g" horiz-adv-x="602" d="M556 539Q566 539 570 535T575 523V488Q575 479 571 474T555 470Q539 470 527 468T503 461Q479 452 483 438Q488 427 494 412T500 370Q500 326 477 290T406 231T283 209Q232 209 203 203T162 187T150 166Q150 150 171
143T241 133L370 126Q458 121 499 84T540 -13Q540 -88 474 -131T284 -175Q157 -175 91 -139T24 -34Q24 1 48 29T118 79Q129 84 118 90Q96 100 84 114T72 149Q72 163 81 177T107 203T150 224Q156 226 156 229T151 236Q107 258 86 291T65 370Q65 448 124 493T291
538Q343 538 379 526T441 493Q447 488 452 488T462 493Q474 504 489 514T521 532T556 539V539ZM283 262Q353 262 387 290T421 371Q421 424 387 454T283 485Q216 485 180 455T143 371Q143 319 179 291T283 262V262ZM195 65Q177 66 155 55T116 23T99 -24Q99 -55 120
-77T185 -111T293 -123Q376 -123 419 -99T462 -23Q462 10 440 31T362 55L195 65Z" />
<glyph unicode="h" horiz-adv-x="584" d="M91 0Q78 0 78 13V729Q78 742 89 742H148Q159 742 159 730V463Q159 458 161 457T168 460Q203 487 232 505T290 531T353 540Q431 540 472 499T513 388V16Q513 0 498 0H442Q435 0 432 3T429 13V370Q429 419 404 446T325
474Q296 474 271 465T219 438T162 393V15Q162 0 146 0H91V0Z" />
<glyph unicode="i" horiz-adv-x="239" d="M161 17Q161 7 158 4T143 0H92Q83 0 80 3T77 14V516Q77 530 89 530H150Q161 530 161 517V17ZM165 644Q165 625 147 625H89Q80 625 77 629T74 642V726Q74 742 88 742H151Q165 742 165 727V644Z" />
<glyph unicode="j" horiz-adv-x="239" d="M162 -29Q162 -100 132 -135T22 -170Q-22 -170 -33 -168T-44 -157V-113Q-44 -109 -42 -106T-34 -102L17 -99Q49 -98 63 -82T78 -23V516Q78 530 90 530H151Q162 530 162 517V-29V-29ZM165 644Q165 625 148 625H89Q74 625
74 642V726Q74 742 88 742H152Q165 742 165 727V644Z" />
<glyph unicode="k" horiz-adv-x="564" d="M535 16Q539 10 537 5T526 0H456Q450 0 446 3T438 12L287 271Q285 275 283 276T275 273L169 166Q165 162 164 158T162 146V17Q162 7 159 4T144 0H93Q83 0 81 3T78 14V728Q78 742 89 742H150Q162 742 162 729V265Q162 257
164 256T172 261L419 518Q430 530 440 530H501Q511 530 512 525T506 511L348 350Q345 347 345 343T347 333L535 16V16Z" />
<glyph unicode="l" horiz-adv-x="239" d="M162 17Q162 7 158 4T144 0H92Q77 0 77 14L78 728Q78 742 90 742H150Q162 742 162 729V17Z" />
<glyph unicode="m" horiz-adv-x="906" d="M91 0Q77 0 77 13V517Q77 530 88 530H148Q158 530 158 519V461Q158 456 160 455T168 458Q200 484 227 502T283 530T345 540Q404 540 439 513T487 452Q489 448 493 449T501 454Q533 481 561 500T619 529T682 540Q755 540
795 499T835 387V16Q835 0 820 0H764Q757 0 754 3T751 13V370Q751 419 728 446T654 474Q625 474 599 463T551 436T512 406Q504 399 501 393T498 376V16Q498 0 483 0H427Q421 0 418 3T414 13V370Q414 419 391 446T318 474Q276 474 241 454T161 393V15Q161 0 146
0H91V0Z" />
<glyph unicode="n" horiz-adv-x="584" d="M91 0Q77 0 77 13V517Q77 530 88 530H148Q159 530 159 519V461Q159 456 161 455T168 458Q201 484 229 502T288 530T352 540Q430 540 471 498T513 389V16Q513 0 498 0H442Q435 0 432 3T429 13V370Q429 419 404 446T325
474Q296 474 271 465T219 438T161 393V15Q161 0 146 0H91V0Z" />
<glyph unicode="o" horiz-adv-x="599" d="M299 -10Q224 -10 167 24T78 120T46 262Q46 345 78 407T168 505T300 540Q376 540 432 505T520 407T552 263Q552 183 520 122T432 25T299 -10V-10ZM301 53Q353 53 390 78T446 151T466 265Q466 331 446 378T389 452T300
478Q249 478 211 452T153 379T132 265Q132 200 152 152T211 79T301 53V53Z" />
<glyph unicode="p" horiz-adv-x="597" d="M146 530Q160 530 160 515V473Q160 465 163 465T173 469Q184 481 203 497T252 527T330 540Q391 540 440 511T519 422T549 273Q549 183 520 120T440 24T319 -10Q273 -10 238 4T177 40Q168 48 165 47T161 34V-152Q161 -165
150 -165H88Q77 -165 77 -152V514Q77 523 80 526T93 530H146V530ZM161 117Q192 87 224 69T297 51Q345 51 382 76T441 150T463 272Q463 345 441 391T383 458T302 479Q261 479 229 461T179 417T161 364V117V117Z" />
<glyph unicode="q" horiz-adv-x="599" d="M507 530Q515 530 518 527T522 513V-152Q522 -165 510 -165H449Q438 -165 438 -152V32Q438 44 435 46T423 40Q397 20 359 5T275 -10Q205 -10 154 24T76 120T48 267Q48 349 75 410T153 506T277 540Q328 540 360 527T411
498T442 469Q451 459 453 472L460 514Q462 523 465 526T478 530H507ZM438 351Q438 385 420 414T370 462T297 481Q252 481 215 458T156 388T134 268Q134 198 155 150T213 76T298 51Q338 51 374 68T438 115V351Z" />
<glyph unicode="r" horiz-adv-x="383" d="M91 0Q84 0 81 3T77 13V517Q77 530 88 530H146Q157 530 157 519V454Q157 448 160 447T168 451Q194 482 219 501T271 530T323 540Q358 540 358 527V467Q358 457 349 459Q340 460 329 461T304 462Q282 462 257 453T211 426T175
388T161 346V15Q161 0 146 0H91V0Z" />
<glyph unicode="s" horiz-adv-x="512" d="M395 413Q375 443 339 462T253 481Q199 481 164 458T128 396Q128 375 144 357T209 322L336 284Q405 265 435 229T466 146Q466 99 438 64T361 10T250 -10Q171 -10 112 21T28 100Q25 105 25 109T30 116L69 138Q74 141 78
141T84 137Q101 111 123 92T177 62T251 51Q289 52 320 62T369 91T387 137Q387 164 365 183T289 218L186 247Q111 267 81 301T49 381Q49 429 75 464T147 520T254 540Q321 540 373 515T453 447Q456 443 456 440T452 433L410 410Q406 408 403 408T395 413V413Z" />
<glyph unicode="t" horiz-adv-x="387" d="M217 467Q209 467 209 459V142Q209 95 225 79T273 63H342Q347 63 350 61T353 52L352 18Q352 8 340 5Q330 3 312 2T276 1T246 0Q183 0 154 29T125 123V457Q125 467 115 467H35Q24 467 24 478V520Q24 530 34 530H119Q126
530 126 538L137 697Q138 710 148 710H198Q210 710 210 696V538Q210 530 218 530H344Q355 530 355 521V478Q355 467 344 467H217Z" />
<glyph unicode="u" horiz-adv-x="579" d="M257 56Q300 56 339 79T418 143V515Q418 530 434 530H489Q503 530 503 516L501 13Q501 0 490 0H432Q421 0 421 11V70Q421 75 419 76T412 73Q357 26 315 8T230 -10Q184 -10 148 9T91 62T70 143V514Q70 530 85 530H141Q154
530 154 516V165Q154 116 181 86T257 56V56Z" />
<glyph unicode="v" horiz-adv-x="547" d="M508 530Q515 530 518 526T518 515L315 15Q310 0 292 0H256Q237 0 231 14L29 515Q27 521 30 525T40 530H102Q108 530 112 528T118 519L275 126Q282 107 291 127L447 519Q449 525 452 527T462 530H508V530Z" />
<glyph unicode="w" horiz-adv-x="796" d="M755 530Q761 530 764 526T765 515L612 13Q610 6 606 3T593 0H545Q528 0 524 13L405 387Q401 396 398 396T393 387L280 13Q278 6 274 3T261 0H210Q194 0 189 13L31 515Q30 521 33 525T43 530H102Q108 530 112 528T118
519L237 130Q240 120 244 120T252 131L370 520Q372 525 375 527T384 530H431Q437 530 441 528T446 519L569 130Q572 120 576 120T583 131L698 519Q701 525 705 527T715 530H755V530Z" />
<glyph unicode="x" horiz-adv-x="544" d="M510 21Q518 9 517 5T506 0H436Q421 0 415 9L274 203Q269 210 266 210T257 203L110 9Q104 0 89 0H42Q32 0 28 5T35 24L217 256Q222 263 222 267T217 278L42 514Q39 519 41 524T51 530H118Q126 530 129 528T137 521L272
338Q280 327 287 338L418 521Q422 526 426 528T438 530H490Q499 530 499 526T496 516L327 290Q322 284 322 279T327 268L510 21V21Z" />
<glyph unicode="y" horiz-adv-x="530" d="M106 -165Q77 -165 61 -163T45 -152V-113Q45 -106 50 -103T73 -100H136Q158 -100 176 -86T206 -49T222 -5T219 35L28 513Q26 520 28 525T39 530H101Q107 530 111 528T117 519L266 131Q270 122 275 122T284 134L431 519Q434
525 437 527T445 530H492Q499 530 502 526T502 515L282 -47Q268 -83 251 -106T213 -141T165 -159T106 -165V-165Z" />
<glyph unicode="z" horiz-adv-x="482" d="M43 0Q36 0 34 2T31 12V41Q31 49 33 54T43 70L334 461Q342 471 329 471H64Q58 471 56 473T53 482V519Q53 530 63 530H433Q442 530 442 520V488Q442 481 440 475T432 461L140 70Q132 59 143 59H437Q448 59 448 50V12Q448
6 445 3T435 0H43V0Z" />
<glyph unicode="{" horiz-adv-x="305" d="M116 639Q116 671 132 694T177 729T244 742H281Q290 742 290 735V694Q290 686 281 686H256Q230 686 216 680T197 662T192 633V412Q191 373 177 348T141 310T92 293Q86 292 86 290T92 287Q117 285 139 273T176 236T192
169V-54Q192 -82 205 -95T256 -109H279Q290 -109 290 -119V-154Q290 -165 279 -165H245Q206 -165 177 -152T132 -116T116 -61V164Q116 188 104 211T68 248T6 263Q0 263 0 273V307Q0 317 6 317Q62 318 89 347T116 421V639V639Z" />
<glyph unicode="|" horiz-adv-x="261" d="M110 -165Q98 -165 98 -152L97 835Q97 841 99 844T108 847H152Q164 847 164 835V-154Q164 -165 153 -165H110Z" />
<glyph unicode="}" horiz-adv-x="305" d="M189 639V639V421Q189 376 216 347T299 317Q305 317 305 307V273Q305 263 299 263Q262 263 238 249T201 211T189 164V-61Q189 -92 174 -115T129 -152T60 -165H26Q15 -165 15 -154V-119Q15 -109 26 -109H49Q87 -109 100
-96T114 -54V169Q114 211 128 235T166 272T213 287Q220 288 220 290T213 293Q188 296 165 309T128 348T114 412V633Q114 650 109 661T89 679T50 686H24Q15 686 15 694V735Q15 742 24 742H61Q99 742 128 730T173 694T189 639Z" />
<glyph unicode="~" d="M502 372Q487 351 457 335T382 319Q352 319 329 326T284 344T242 362T194 370Q158 370 134 355T91 323Q87 319 84 319T79 325L62 357Q58 365 65 371Q91 395 120 412T192 430Q221 430 244 422T289 404T333 386T382 378Q418 378 439 391T474
421Q483 432 490 419L505 389Q508 385 507 381T502 372V372Z" />
<glyph unicode="&#xa0;" horiz-adv-x="214" />
<glyph unicode="&#xa1;" horiz-adv-x="244" d="M174 430Q174 419 164 419H81Q71 419 71 431V516Q71 530 86 530H155Q174 530 174 514V430V430ZM173 -155Q174 -159 171 -162T164 -165H82Q78 -165 75 -163T73 -154L94 338Q94 344 97 347T107 350H136Q144 350 148
347T152 336L173 -155V-155Z" />
<glyph unicode="&#xa2;" horiz-adv-x="558" d="M323 17Q323 0 305 0H275Q258 0 258 16V127Q258 142 274 142H309Q323 142 323 129V17V17ZM323 618Q323 600 305 600H275Q258 600 258 616V727Q258 742 274 742H309Q323 742 323 729V618V618ZM297 651Q349 651 388
635T456 590T504 527Q510 515 499 512L444 499Q437 496 431 505Q411 534 392 552T350 579T302 589Q251 589 213 564T153 490T132 376Q132 309 153 261T213 188T304 163Q352 163 387 187T451 257Q454 262 456 262T464 261L507 245Q514 242 511 232Q496 206 476 182T430
140T370 112T297 101Q223 101 167 135T78 231T46 374Q46 456 78 518T167 615T297 651V651Z" />
<glyph unicode="&#xa3;" horiz-adv-x="615" d="M23 0Q12 0 12 11V64Q12 73 21 73H51Q91 72 118 107T145 220Q145 243 142 274T134 347Q133 354 127 354H37Q29 354 29 362V402Q29 410 37 410H114Q123 410 121 418L107 493Q94 554 106 602T148 683T221 734T313 752Q357
752 397 738T468 699T513 641Q515 637 513 635T505 631L451 612Q440 608 437 616Q422 644 395 661T323 678Q287 678 258 664T211 624T194 558Q194 524 201 484T217 418Q219 410 225 410H380Q387 410 387 404V362Q387 355 380 355H236Q227 355 228 346Q232 318 234
291T234 235Q233 191 224 160T203 111T183 83Q179 78 180 76T186 74H361Q411 74 443 90T493 148Q497 157 507 154L557 141Q568 137 565 129Q543 65 491 33T366 0H23V0Z" />
<glyph unicode="&#xa4;" horiz-adv-x="537" d="M268 183Q210 183 163 214Q155 219 149 213L105 168Q96 159 85 168L62 193Q53 202 62 210L106 255Q112 262 106 272Q93 294 86 319T78 373Q78 402 86 428T109 477Q113 485 107 490L63 535Q55 545 63 554L87 578Q96
588 105 579L150 533Q156 528 164 532Q186 546 212 554T267 563Q325 563 372 531Q379 527 384 532L432 580Q439 587 444 580L475 549Q480 543 475 537L426 488Q422 484 425 477Q440 455 448 429T457 373Q457 344 449 318T425 269Q421 263 426 258L475 210Q481 203
475 197L445 166Q439 160 433 166L386 214Q379 220 374 216Q351 200 325 192T268 183V183ZM269 249Q305 249 333 266T377 311T393 373Q393 406 377 434T333 480T269 497Q234 497 206 480T161 435T144 373Q144 340 160 312T205 266T269 249V249Z" />
<glyph unicode="&#xa5;" horiz-adv-x="609" d="M590 742Q597 742 599 738T598 728L362 336Q358 330 358 324T357 303V17Q357 0 337 0H277Q267 0 264 4T261 15V296Q261 306 259 311T253 323L13 726Q9 733 12 737T24 742H99Q108 742 112 740T120 730L305 409Q310
400 313 400T322 408L510 730Q515 738 518 740T531 742H590V742ZM514 303Q514 290 497 290L116 289Q109 289 106 291T103 301V333Q103 344 112 344L504 345Q514 345 514 335V303ZM514 155Q514 141 497 141H116Q109 141 106 143T103 153V185Q103 196 112 196L504
197Q514 197 514 187V155Z" />
<glyph unicode="&#xa6;" horiz-adv-x="261" d="M110 437Q98 437 98 450L97 835Q97 841 99 844T108 847H152Q164 847 164 835V448Q164 437 153 437H110ZM110 -165Q98 -165 98 -152L97 232Q97 239 99 242T108 245H152Q164 245 164 232V-154Q164 -165 153 -165H110Z" />
<glyph unicode="&#xa7;" horiz-adv-x="488" d="M355 204Q402 178 426 147T451 73Q451 32 427 -1T359 -54T253 -73Q182 -73 125 -43T40 35Q37 41 38 44T40 49L83 72Q88 75 91 74T98 68Q121 34 160 11T254 -12Q304 -12 337 8T371 66Q371 92 350 116T268 163L178
198Q109 224 79 260T48 345Q48 392 77 426T150 478Q110 499 88 520T58 564T50 611Q50 651 73 683T139 733T240 752Q305 752 354 724T428 659Q432 653 431 650T427 645L388 623Q382 621 379 621T371 626Q348 653 317 672T245 691Q191 691 161 671T130 618Q130 597
146 575T215 532L300 498Q380 466 414 427T448 334Q448 283 421 253T355 204V204ZM277 239Q303 237 324 247T359 277T372 320Q372 351 356 375T283 424L226 446Q197 444 174 431T137 398T123 356Q123 328 140 308T214 265L277 239V239Z" />
<glyph unicode="&#xa8;" horiz-adv-x="250" d="M94 647Q94 638 91 635T77 632H24Q16 632 13 635T10 645V729Q10 742 21 742H83Q94 742 94 730V647ZM240 647Q240 638 237 635T223 632H171Q162 632 160 635T157 645V729Q157 742 168 742H229Q240 742 240 730V647Z" />
<glyph unicode="&#xa9;" horiz-adv-x="830" d="M415 -10Q336 -10 267 19T146 101T64 222T34 371Q34 450 63 519T145 640T267 722T415 752Q494 752 563 723T684 641T766 519T796 371Q796 292 767 223T685 101T563 20T415 -10V-10ZM415 50Q480 50 537 72T639 136T708
238T733 371Q733 443 708 502T639 605T538 670T415 693Q349 693 291 671T190 605T122 503T97 371Q97 298 121 239T189 137T291 72T415 50V50ZM417 588Q458 588 489 574T542 537T581 486Q583 481 582 479T577 476L528 462Q522 460 518 468Q500 498 477 515T421 533Q366
533 332 491T297 374Q297 300 332 257T423 214Q462 214 490 235T535 288Q538 294 547 290L581 277Q587 275 584 267Q573 246 558 227T521 193T474 169T417 160Q360 160 316 186T248 261T223 372Q223 436 248 484T317 560T417 588V588Z" />
<glyph unicode="&#xaa;" horiz-adv-x="400" d="M188 750Q255 750 287 720T320 638V473Q320 458 321 449T328 423Q331 417 327 415T316 412H277Q272 412 270 414T266 421L262 449Q260 457 251 450Q226 428 203 417T147 406Q95 406 66 430T37 498Q37 547 78 575T202
609L250 614Q261 615 261 624V639Q261 705 184 705Q158 705 138 696T101 660Q98 655 91 657L51 669Q49 670 49 673T50 679Q67 713 101 731T188 750V750ZM99 501Q99 478 117 464T168 449Q207 449 237 476Q248 486 254 497T261 519V564Q261 575 251 574L210 571Q156
567 128 549T99 501V501Z" />
<glyph unicode="&#xab;" horiz-adv-x="446" d="M395 80Q399 73 386 73H357Q350 73 347 79L222 246Q214 257 221 267L348 444Q350 448 352 449T357 450H388Q392 450 394 448T395 440L297 265Q293 256 297 249L395 80ZM217 80Q221 73 208 73H179Q171 73 169 79L43
246Q35 257 42 267L169 444Q172 448 174 449T179 450H210Q214 450 216 448T217 440L118 265Q114 256 118 249L217 80Z" />
<glyph unicode="&#xac;" horiz-adv-x="557" d="M496 353Q496 340 480 340L75 339Q68 339 65 342T62 351V394Q62 406 71 406H486Q496 406 496 396V353ZM496 207Q496 194 483 194H437Q425 194 425 204L424 377Q424 387 433 387H486Q496 387 496 375V207Z" />
<glyph unicode="&#xad;" horiz-adv-x="381" d="M319 245Q319 231 302 231H75Q68 231 65 233T62 243V287Q62 298 71 298L309 299Q319 299 319 289V245Z" />
<glyph unicode="&#xae;" horiz-adv-x="545" d="M273 275Q207 275 153 307T66 393T34 513Q34 579 66 633T152 719T273 752Q339 752 393 720T479 633T511 513Q511 447 479 393T393 307T273 275V275ZM273 320Q329 320 372 343T439 410T463 513Q463 572 439 615T372
683T273 707Q216 707 173 683T106 616T82 513Q82 454 106 411T173 344T273 320V320ZM362 400Q363 397 362 395T358 393H323Q320 393 318 397L280 499Q279 501 279 502T273 503H227Q223 503 223 499V399Q223 393 218 393H187Q182 393 182 398V625Q182 630 185 630H288Q326
630 347 615T368 570Q368 542 354 528T321 508Q319 508 320 505L362 400V400ZM282 536Q300 536 312 543T325 566Q325 579 316 588T279 597H228Q225 597 224 597T223 593V540Q223 536 227 536H282V536Z" />
<glyph unicode="&#xaf;" horiz-adv-x="316" d="M306 679Q306 666 291 666H21Q15 666 13 669T10 678V717Q10 728 18 728H298Q306 728 306 718V679Z" />
<glyph unicode="&#xb0;" horiz-adv-x="464" d="M391 699Q391 652 370 616T313 560T232 540Q187 540 151 560T94 616T73 699Q73 745 93 781T150 837T232 858Q277 858 313 838T370 781T391 699V699ZM329 698Q329 743 302 771T230 799Q186 799 159 771T132 698Q133
653 159 624T231 595Q276 595 302 624T329 698V698Z" />
<glyph unicode="&#xb1;" horiz-adv-x="557" d="M496 79Q496 65 480 65L75 64Q68 64 65 67T62 76V119Q62 131 71 131H486Q496 131 496 122V79ZM496 430Q496 417 480 417L75 416Q68 416 65 419T62 428V471Q62 482 71 482L486 483Q496 483 496 473V430ZM260 233Q246
233 246 249L245 654Q245 662 248 664T257 667H300Q312 667 312 658V243Q312 233 302 233H260Z" />
<glyph unicode="&#xb2;" horiz-adv-x="452" d="M200 579Q235 613 256 637T286 683T295 728Q295 755 282 773T247 801T202 810Q175 810 146 796T95 748Q91 740 82 746L55 762Q50 766 50 769T52 776Q80 818 121 837T208 857Q247 857 280 843T334 800T354 726Q354
699 344 675T312 623T253 562L126 443Q123 440 124 438T130 435H351Q359 435 359 428V391Q359 384 351 384H59Q53 384 51 386T49 394V420Q49 427 52 432T66 446L200 579Z" />
<glyph unicode="&#xb3;" horiz-adv-x="467" d="M76 785Q72 789 76 795Q106 826 142 841T222 857Q295 857 337 823T379 739Q379 705 358 678T299 637Q292 634 292 633T299 628Q338 618 365 588T393 513Q393 454 349 416T214 378Q166 378 127 394T57 444Q54 447
54 449T58 456L86 476Q92 482 95 477Q124 448 153 436T218 424Q273 424 303 448T334 511Q334 542 317 562T273 594T215 605H159Q152 605 152 611V643Q152 649 159 650L204 651Q253 651 286 675T320 736Q320 768 293 790T222 812Q190 812 162 800T110 763Q107 760
105 760T98 763L76 785V785Z" />
<glyph unicode="&#xb4;" horiz-adv-x="285" d="M277 703Q281 690 266 685L38 616Q31 615 28 616T22 624L14 646Q10 657 18 660L250 753Q259 756 262 748L277 703Z" />
<glyph unicode="&#xb5;" horiz-adv-x="579" d="M257 56Q299 56 339 79T418 143V515Q418 530 434 530H489Q503 530 503 516L501 13Q501 0 490 0H432Q421 0 421 11V71Q421 76 419 77T412 74Q362 32 326 14T250 -7Q221 -8 197 -2T154 21V-148Q154 -158 151 -161T136
-165H85Q70 -165 70 -151V514Q70 530 85 530H141Q154 530 154 516V149Q154 123 168 102T205 69T257 56V56Z" />
<glyph unicode="&#xb6;" horiz-adv-x="561" d="M435 689Q428 689 428 681V-76Q428 -79 427 -82T421 -85H380Q371 -85 371 -76V683Q371 689 364 689H328Q321 689 321 681V-77Q321 -85 313 -85H271Q263 -85 263 -77V300Q263 305 258 305Q193 307 145 335T72 411T46
517Q46 575 72 626T151 710T281 742H483Q490 742 490 736V695Q490 689 483 689H435Z" />
<glyph unicode="&#xb7;" horiz-adv-x="201" d="M155 335Q155 320 138 320H59Q45 320 45 334V415Q45 427 54 427H146Q155 427 155 416V335Z" />
<glyph unicode="&#xb8;" horiz-adv-x="221" d="M211 -131Q211 -157 196 -174T157 -200T102 -210Q77 -210 55 -205T14 -188Q8 -184 10 -179L21 -153Q24 -148 30 -151Q42 -159 56 -164T92 -170Q121 -170 135 -161T149 -132Q149 -109 130 -98T68 -86Q63 -86 62 -85T62
-80L99 5H146L123 -52Q121 -57 127 -57Q159 -59 177 -70T203 -98T211 -131V-131Z" />
<glyph unicode="&#xb9;" horiz-adv-x="367" d="M266 427Q272 427 272 422V387Q272 380 265 380H44Q37 380 37 386V422Q37 427 44 427H124Q128 427 128 431V777Q128 783 123 782L45 753Q37 751 37 760V786Q37 790 38 791T43 795L137 842Q142 844 145 845T155 847H182Q189
847 189 839V432Q189 427 193 427H266V427Z" />
<glyph unicode="&#xba;" horiz-adv-x="411" d="M205 751Q255 751 290 729T345 668T365 577Q365 528 346 490T292 429T205 407Q156 407 120 429T65 489T46 577Q46 629 66 668T122 729T205 751V751ZM205 704Q158 704 135 671T111 580Q111 520 134 487T205 453Q253
453 277 486T301 580Q301 637 277 670T205 704V704Z" />
<glyph unicode="&#xbb;" horiz-adv-x="446" d="M149 249Q154 257 149 265L51 440Q48 445 50 447T57 450H88Q91 450 93 449T98 444L225 267Q232 257 224 246L99 79Q96 73 89 73H60Q48 73 50 80L149 249V249ZM327 249Q332 257 327 265L229 440Q227 445 229 447T236
450H267Q270 450 272 449T276 444L403 267Q411 257 402 246L277 79Q274 73 267 73H238Q226 73 229 80L327 249V249Z" />
<glyph unicode="&#xbc;" horiz-adv-x="891" d="M269 323Q275 323 275 318V283Q275 276 268 276H47Q40 276 40 282V318Q40 323 47 323H127Q131 323 131 327V673Q131 679 126 678L48 649Q40 647 40 656V682Q40 686 41 687T46 691L140 738Q145 740 148 741T158 743H185Q192
743 192 735V328Q192 323 196 323H269V323ZM244 5Q238 -4 225 -4H199Q189 -4 188 2T191 15L675 743Q678 748 682 749T691 750H724Q729 750 731 748T730 739L244 5ZM707 460Q710 464 713 465T722 467H765Q772 467 772 459V176Q772 170 778 170H837Q845 170 845 164V134Q845
125 836 125H778Q772 125 772 119V9Q772 0 762 0H719Q711 0 711 9V121Q711 125 705 125H502Q493 125 493 134V165Q493 170 495 174T502 186L707 460V460ZM704 170Q710 170 710 174V385Q710 392 708 392T701 387L548 178Q542 170 552 170H704Z" />
<glyph unicode="&#xbd;" horiz-adv-x="950" d="M265 323Q271 323 271 318V283Q271 276 264 276H43Q36 276 36 282V318Q36 323 43 323H123Q127 323 127 327V673Q127 679 122 678L44 649Q36 647 36 656V682Q36 686 37 687T42 691L136 738Q141 740 144 741T154 743H181Q188
743 188 735V328Q188 323 192 323H265V323ZM233 5Q227 -4 214 -4H188Q178 -4 177 2T180 15L664 743Q667 748 671 749T680 750H713Q718 750 720 748T719 739L233 5ZM726 195Q761 229 782 253T812 299T821 344Q821 371 808 389T773 417T728 426Q701 426 672 412T621
364Q617 356 608 362L581 378Q576 382 576 385T578 392Q606 434 647 453T734 473Q773 473 806 459T860 416T880 342Q880 315 870 291T838 239T779 178L652 59Q649 56 650 54T656 51H877Q885 51 885 44V7Q885 0 877 0H585Q579 0 577 2T575 10V36Q575 43 578 48T592
62L726 195Z" />
<glyph unicode="&#xbe;" horiz-adv-x="932" d="M62 680Q58 684 62 690Q92 721 128 736T208 752Q281 752 323 718T365 634Q365 600 344 573T285 532Q278 529 278 528T285 523Q324 513 351 483T379 408Q379 349 335 311T200 273Q152 273 113 289T43 339Q40 342 40
344T44 351L72 371Q78 377 81 372Q110 343 139 331T204 319Q259 319 289 343T320 406Q320 437 303 457T259 489T201 500H145Q138 500 138 506V538Q138 544 145 545L190 546Q239 546 272 570T306 631Q306 663 279 685T208 707Q176 707 148 695T96 658Q93 655 91
655T84 658L62 680V680ZM303 5Q297 -4 284 -4H258Q248 -4 247 2T250 15L734 743Q737 748 741 749T750 750H783Q788 750 790 748T789 739L303 5ZM759 460Q762 464 765 465T774 467H817Q824 467 824 459V176Q824 170 830 170H889Q897 170 897 164V134Q897 125 888
125H830Q824 125 824 119V9Q824 0 814 0H771Q763 0 763 9V121Q763 125 757 125H554Q545 125 545 134V165Q545 170 547 174T554 186L759 460V460ZM756 170Q762 170 762 174V385Q762 392 760 392T753 387L600 178Q594 170 604 170H756Z" />
<glyph unicode="&#xbf;" horiz-adv-x="516" d="M219 514Q219 530 237 530H307Q315 530 318 527T322 516V431Q322 419 311 419H229Q219 419 219 430V514ZM483 -27Q488 -29 489 -33T488 -41Q457 -103 394 -139T252 -175Q181 -175 131 -152T55 -89T28 4Q28 45 42
74T81 125T130 169T180 213T218 266T233 338Q233 343 236 346T245 350H294Q307 350 307 336Q307 289 293 255T257 196T211 150T165 109T129 65T115 7Q115 -45 153 -76T252 -107Q286 -107 318 -95T376 -62T413 -15Q416 -11 418 -10T426 -10L483 -27Z" />
<glyph unicode="&#xc0;" horiz-adv-x="727" d="M55 0Q49 0 47 4T46 17L305 728Q308 735 312 738T325 742H403Q421 742 426 727L682 17Q684 11 682 6T672 0H601Q589 0 585 10L516 204Q514 208 512 210T504 212H213Q204 212 201 204L130 9Q129 5 126 3T115 0H55V0ZM478
288Q490 288 486 301L366 630Q362 639 359 639T352 630L230 299Q225 288 236 288H478ZM251 958Q255 966 263 963L495 870Q503 867 499 856L491 834Q489 828 486 827T475 826L247 895Q232 900 236 913L251 958V958Z" />
<glyph unicode="&#xc1;" horiz-adv-x="727" d="M55 0Q49 0 47 4T46 17L305 728Q308 735 312 738T325 742H403Q421 742 426 727L682 17Q684 11 682 6T672 0H601Q589 0 585 10L516 204Q514 208 512 210T504 212H213Q204 212 201 204L130 9Q129 5 126 3T115 0H55V0ZM478
288Q490 288 486 301L366 630Q362 639 359 639T352 630L230 299Q225 288 236 288H478ZM497 915Q501 902 486 897L258 828Q251 827 248 828T242 836L234 858Q230 869 238 872L470 965Q479 968 482 960L497 915Z" />
<glyph unicode="&#xc2;" horiz-adv-x="727" d="M55 0Q49 0 47 4T46 17L305 728Q308 735 312 738T325 742H403Q421 742 426 727L682 17Q684 11 682 6T672 0H601Q589 0 585 10L516 204Q514 208 512 210T504 212H213Q204 212 201 204L130 9Q129 5 126 3T115 0H55V0ZM478
288Q490 288 486 301L366 630Q362 639 359 639T352 630L230 299Q225 288 236 288H478ZM373 899Q366 907 363 907T350 899L293 849Q287 845 284 844T275 843H221Q214 843 214 846T218 855L321 946Q326 951 331 954T346 957H385Q392 957 396 954T404 947L506 855Q519
843 504 843H446Q440 843 436 844T427 849L373 899Z" />
<glyph unicode="&#xc3;" horiz-adv-x="727" d="M55 0Q49 0 47 4T46 17L305 728Q308 735 312 738T325 742H403Q421 742 426 727L682 17Q684 11 682 6T672 0H601Q589 0 585 10L516 204Q514 208 512 210T504 212H213Q204 212 201 204L130 9Q129 5 126 3T115 0H55V0ZM478
288Q490 288 486 301L366 630Q362 639 359 639T352 630L230 299Q225 288 236 288H478ZM503 889Q492 882 474 875T427 867Q401 867 381 873T342 886T300 893Q278 893 266 886T240 872Q235 869 232 869T226 877L216 903Q215 909 215 911T220 918Q236 930 253 939T296
948Q321 948 342 942T385 928T428 920Q447 920 459 926T485 940Q491 943 495 943T501 935L511 904Q513 897 503 889V889Z" />
<glyph unicode="&#xc4;" horiz-adv-x="727" d="M55 0Q49 0 47 4T46 17L305 728Q308 735 312 738T325 742H403Q421 742 426 727L682 17Q684 11 682 6T672 0H601Q589 0 585 10L516 204Q514 208 512 210T504 212H213Q204 212 201 204L130 9Q129 5 126 3T115 0H55V0ZM478
288Q490 288 486 301L366 630Q362 639 359 639T352 630L230 299Q225 288 236 288H478ZM331 859Q331 850 328 847T314 844H261Q253 844 250 847T247 857V941Q247 954 258 954H320Q331 954 331 942V859ZM477 859Q477 850 474 847T460 844H408Q399 844 397 847T394
857V941Q394 954 405 954H466Q477 954 477 942V859Z" />
<glyph unicode="&#xc5;" horiz-adv-x="727" d="M55 0Q49 0 47 4T46 17L305 728Q308 735 312 738T325 742H403Q421 742 426 727L682 17Q684 11 682 6T672 0H601Q589 0 585 10L516 204Q514 208 512 210T504 212H213Q204 212 201 204L130 9Q129 5 126 3T115 0H55V0ZM478
288Q490 288 486 301L366 630Q362 639 359 639T352 630L230 299Q225 288 236 288H478ZM467 860Q467 815 437 785T362 755Q318 755 288 786T258 862Q258 890 272 913T310 949T362 963Q392 963 415 949T453 912T467 860V860ZM417 859Q417 883 401 899T361 915Q339
915 322 899T305 859Q305 837 322 820T361 803Q385 803 401 820T417 859V859Z" />
<glyph unicode="&#xc6;" horiz-adv-x="1008" d="M949 74Q961 74 961 64V11Q961 6 959 3T950 0H513Q499 0 499 14V205Q499 212 491 212H252Q243 212 239 204L129 9Q127 5 124 3T113 0H53Q47 0 45 4T47 17L444 728Q448 735 452 738T466 742H938Q948 742 948 731V680Q948
668 935 668H607Q594 668 594 656V422Q594 411 606 411H850Q861 411 861 400V347Q861 343 859 341T850 338H605Q594 338 594 327V84Q594 74 604 74H949V74ZM488 288Q499 288 499 300V639Q498 652 491 652T477 638L283 299Q276 288 287 288H488V288Z" />
<glyph unicode="&#xc7;" horiz-adv-x="707" d="M378 752Q428 752 474 736T558 691T619 626T649 547Q651 538 650 535T642 532L567 526Q562 525 560 528T557 536Q543 600 497 639T381 679Q277 679 221 602T165 370Q165 220 220 143T386 66Q457 66 504 100T581 209Q584
215 593 213L652 199Q655 198 657 195T657 185Q649 156 633 128T592 76T536 32T466 1T382 -10Q283 -10 212 36T103 168T65 372Q65 490 102 575T210 706T378 752V752ZM472 -131Q472 -157 457 -174T418 -200T363 -210Q338 -210 316 -205T275 -188Q269 -184 271 -179L282
-153Q285 -148 291 -151Q303 -159 317 -164T353 -170Q382 -170 396 -161T410 -132Q410 -109 391 -98T329 -86Q324 -86 323 -85T323 -80L360 5H407L384 -52Q382 -57 388 -57Q420 -59 438 -70T464 -98T472 -131V-131Z" />
<glyph unicode="&#xc8;" horiz-adv-x="628" d="M97 728Q97 742 109 742H558Q568 742 568 731V680Q568 668 555 668H206Q193 668 193 656V422Q193 411 204 411H463Q474 411 474 400V347Q474 343 472 341T463 338H204Q193 338 193 327V84Q193 74 203 74H570Q581
74 581 64V11Q581 6 579 3T570 0H111Q97 0 97 14V728V728ZM231 958Q235 966 243 963L475 870Q483 867 479 856L471 834Q469 828 466 827T455 826L227 895Q212 900 216 913L231 958V958Z" />
<glyph unicode="&#xc9;" horiz-adv-x="628" d="M97 728Q97 742 109 742H558Q568 742 568 731V680Q568 668 555 668H206Q193 668 193 656V422Q193 411 204 411H463Q474 411 474 400V347Q474 343 472 341T463 338H204Q193 338 193 327V84Q193 74 203 74H570Q581
74 581 64V11Q581 6 579 3T570 0H111Q97 0 97 14V728V728ZM477 915Q481 902 466 897L238 828Q231 827 228 828T222 836L214 858Q210 869 218 872L450 965Q459 968 462 960L477 915Z" />
<glyph unicode="&#xca;" horiz-adv-x="628" d="M97 728Q97 742 109 742H558Q568 742 568 731V680Q568 668 555 668H206Q193 668 193 656V422Q193 411 204 411H463Q474 411 474 400V347Q474 343 472 341T463 338H204Q193 338 193 327V84Q193 74 203 74H570Q581
74 581 64V11Q581 6 579 3T570 0H111Q97 0 97 14V728V728ZM353 899Q346 907 343 907T330 899L273 849Q267 845 264 844T255 843H201Q194 843 194 846T198 855L301 946Q306 951 311 954T326 957H365Q372 957 376 954T384 947L486 855Q499 843 484 843H426Q420 843
416 844T407 849L353 899Z" />
<glyph unicode="&#xcb;" horiz-adv-x="628" d="M97 728Q97 742 109 742H558Q568 742 568 731V680Q568 668 555 668H206Q193 668 193 656V422Q193 411 204 411H463Q474 411 474 400V347Q474 343 472 341T463 338H204Q193 338 193 327V84Q193 74 203 74H570Q581
74 581 64V11Q581 6 579 3T570 0H111Q97 0 97 14V728V728ZM311 859Q311 850 308 847T294 844H241Q233 844 230 847T227 857V941Q227 954 238 954H300Q311 954 311 942V859ZM457 859Q457 850 454 847T440 844H388Q379 844 377 847T374 857V941Q374 954 385 954H446Q457
954 457 942V859Z" />
<glyph unicode="&#xcc;" horiz-adv-x="290" d="M181 742Q193 742 193 729V17Q193 7 189 4T175 0H112Q103 0 100 3T97 14V728Q97 742 109 742H181ZM36 958Q40 966 48 963L280 870Q288 867 284 856L276 834Q274 828 271 827T260 826L32 895Q17 900 21 913L36 958V958Z" />
<glyph unicode="&#xcd;" horiz-adv-x="290" d="M181 742Q193 742 193 729V17Q193 7 189 4T175 0H112Q103 0 100 3T97 14V728Q97 742 109 742H181ZM282 915Q286 902 271 897L43 828Q36 827 33 828T27 836L19 858Q15 869 23 872L255 965Q264 968 267 960L282 915Z" />
<glyph unicode="&#xce;" horiz-adv-x="290" d="M181 742Q193 742 193 729V17Q193 7 189 4T175 0H112Q103 0 100 3T97 14V728Q97 742 109 742H181ZM157 899Q150 907 147 907T134 899L77 849Q71 845 68 844T59 843H5Q-2 843 -2 846T2 855L105 946Q110 951 115 954T130
957H169Q176 957 180 954T188 947L290 855Q303 843 288 843H230Q224 843 220 844T211 849L157 899Z" />
<glyph unicode="&#xcf;" horiz-adv-x="290" d="M181 742Q193 742 193 729V17Q193 7 189 4T175 0H112Q103 0 100 3T97 14V728Q97 742 109 742H181ZM116 859Q116 850 113 847T99 844H46Q38 844 35 847T32 857V941Q32 954 43 954H105Q116 954 116 942V859ZM262 859Q262
850 259 847T245 844H193Q184 844 182 847T179 857V941Q179 954 190 954H251Q262 954 262 942V859Z" />
<glyph unicode="&#xd0;" horiz-adv-x="727" d="M367 352Q367 336 348 336H46Q38 336 35 339T32 351V393Q32 406 42 406H357Q367 406 367 394V352ZM117 742Q125 742 146 742T194 742T242 741T274 741Q412 739 497 697T623 575T663 377Q663 252 620 168T488 42T263
0H117Q102 0 102 16V728Q102 735 105 738T117 742V742ZM208 669Q198 669 198 655V83Q198 72 210 72H248Q359 72 428 101T530 197T563 372Q563 486 530 550T428 642T253 669H208V669Z" />
<glyph unicode="&#xd1;" horiz-adv-x="757" d="M649 742Q660 742 660 730V12Q660 6 657 3T647 0H598Q592 0 587 1T577 8L191 569Q186 576 183 575T180 568V13Q180 0 166 0H110Q97 0 97 13V728Q97 742 110 742H167Q175 742 179 741T188 732L563 183Q569 176 573
178T578 186V730Q578 742 590 742H649ZM531 889Q520 882 502 875T455 867Q429 867 409 873T370 886T328 893Q306 893 294 886T268 872Q263 869 260 869T254 877L244 903Q243 909 243 911T248 918Q264 930 281 939T324 948Q349 948 370 942T413 928T456 920Q475
920 487 926T513 940Q519 943 523 943T529 935L539 904Q541 897 531 889V889Z" />
<glyph unicode="&#xd2;" horiz-adv-x="764" d="M382 -10Q284 -10 213 34T103 162T65 368Q65 490 104 576T214 707T383 752Q481 752 551 707T660 577T699 369Q699 248 661 164T552 35T382 -10V-10ZM384 63Q492 63 545 137T599 368Q599 527 545 603T383 679Q275
679 220 603T165 368Q165 213 220 138T384 63V63ZM272 958Q276 966 284 963L516 870Q524 867 520 856L512 834Q510 828 507 827T496 826L268 895Q253 900 257 913L272 958V958Z" />
<glyph unicode="&#xd3;" horiz-adv-x="764" d="M382 -10Q284 -10 213 34T103 162T65 368Q65 490 104 576T214 707T383 752Q481 752 551 707T660 577T699 369Q699 248 661 164T552 35T382 -10V-10ZM384 63Q492 63 545 137T599 368Q599 527 545 603T383 679Q275
679 220 603T165 368Q165 213 220 138T384 63V63ZM518 915Q522 902 507 897L279 828Q272 827 269 828T263 836L255 858Q251 869 259 872L491 965Q500 968 503 960L518 915Z" />
<glyph unicode="&#xd4;" horiz-adv-x="764" d="M382 -10Q284 -10 213 34T103 162T65 368Q65 490 104 576T214 707T383 752Q481 752 551 707T660 577T699 369Q699 248 661 164T552 35T382 -10V-10ZM384 63Q492 63 545 137T599 368Q599 527 545 603T383 679Q275
679 220 603T165 368Q165 213 220 138T384 63V63ZM394 899Q387 907 384 907T371 899L314 849Q308 845 305 844T296 843H242Q235 843 235 846T239 855L342 946Q347 951 352 954T367 957H406Q413 957 417 954T425 947L527 855Q540 843 525 843H467Q461 843 457 844T448
849L394 899Z" />
<glyph unicode="&#xd5;" horiz-adv-x="764" d="M382 -10Q284 -10 213 34T103 162T65 368Q65 490 104 576T214 707T383 752Q481 752 551 707T660 577T699 369Q699 248 661 164T552 35T382 -10V-10ZM384 63Q492 63 545 137T599 368Q599 527 545 603T383 679Q275
679 220 603T165 368Q165 213 220 138T384 63V63ZM524 889Q513 882 495 875T448 867Q422 867 402 873T363 886T321 893Q299 893 287 886T261 872Q256 869 253 869T247 877L237 903Q236 909 236 911T241 918Q257 930 274 939T317 948Q342 948 363 942T406 928T449
920Q468 920 480 926T506 940Q512 943 516 943T522 935L532 904Q534 897 524 889V889Z" />
<glyph unicode="&#xd6;" horiz-adv-x="764" d="M382 -10Q284 -10 213 34T103 162T65 368Q65 490 104 576T214 707T383 752Q481 752 551 707T660 577T699 369Q699 248 661 164T552 35T382 -10V-10ZM384 63Q492 63 545 137T599 368Q599 527 545 603T383 679Q275
679 220 603T165 368Q165 213 220 138T384 63V63ZM352 859Q352 850 349 847T335 844H282Q274 844 271 847T268 857V941Q268 954 279 954H341Q352 954 352 942V859ZM498 859Q498 850 495 847T481 844H429Q420 844 418 847T415 857V941Q415 954 426 954H487Q498 954
498 942V859Z" />
<glyph unicode="&#xd7;" horiz-adv-x="540" d="M441 174Q431 164 420 176L70 525Q65 530 65 534T70 543L100 573Q109 581 115 575L472 218Q474 216 474 212T472 205L441 174ZM72 202Q62 211 73 223L422 573Q428 578 432 578T440 573L471 542Q478 535 472 528L116
172Q109 165 102 171L72 202Z" />
<glyph unicode="&#xd8;" horiz-adv-x="729" d="M709 716Q717 708 710 700L627 608Q654 563 668 503T682 369Q682 248 644 164T534 35T365 -10Q296 -10 240 12T144 76L76 0Q70 -8 64 -8T50 -2L27 21Q15 33 23 42L102 130Q76 176 62 235T48 368Q48 490 86 576T196
707T366 752Q434 752 489 730T586 663L658 744Q668 754 676 747L709 716V716ZM150 368Q150 319 156 279T177 207L526 601Q473 678 366 678Q258 678 204 602T150 368V368ZM579 368Q579 418 573 459T552 532L204 138Q258 64 366 64Q474 64 526 138T579 368V368Z"
/>
<glyph unicode="&#xd9;" horiz-adv-x="709" d="M622 247Q622 158 592 101T501 17T355 -10Q261 -10 202 20T115 111T87 264V728Q87 742 99 742H171Q183 742 183 729V243Q183 152 228 108T361 64Q419 64 459 83T520 143T541 246V729Q541 742 552 742H611Q622 742
622 730V247V247ZM251 958Q255 966 263 963L495 870Q503 867 499 856L491 834Q489 828 486 827T475 826L247 895Q232 900 236 913L251 958V958Z" />
<glyph unicode="&#xda;" horiz-adv-x="709" d="M622 247Q622 158 592 101T501 17T355 -10Q261 -10 202 20T115 111T87 264V728Q87 742 99 742H171Q183 742 183 729V243Q183 152 228 108T361 64Q419 64 459 83T520 143T541 246V729Q541 742 552 742H611Q622 742
622 730V247V247ZM497 915Q501 902 486 897L258 828Q251 827 248 828T242 836L234 858Q230 869 238 872L470 965Q479 968 482 960L497 915Z" />
<glyph unicode="&#xdb;" horiz-adv-x="709" d="M622 247Q622 158 592 101T501 17T355 -10Q261 -10 202 20T115 111T87 264V728Q87 742 99 742H171Q183 742 183 729V243Q183 152 228 108T361 64Q419 64 459 83T520 143T541 246V729Q541 742 552 742H611Q622 742
622 730V247V247ZM372 899Q365 907 362 907T349 899L292 849Q286 845 283 844T274 843H220Q213 843 213 846T217 855L320 946Q325 951 330 954T345 957H384Q391 957 395 954T403 947L505 855Q518 843 503 843H445Q439 843 435 844T426 849L372 899Z" />
<glyph unicode="&#xdc;" horiz-adv-x="709" d="M622 247Q622 158 592 101T501 17T355 -10Q261 -10 202 20T115 111T87 264V728Q87 742 99 742H171Q183 742 183 729V243Q183 152 228 108T361 64Q419 64 459 83T520 143T541 246V729Q541 742 552 742H611Q622 742
622 730V247V247ZM331 859Q331 850 328 847T314 844H261Q253 844 250 847T247 857V941Q247 954 258 954H320Q331 954 331 942V859ZM477 859Q477 850 474 847T460 844H408Q399 844 397 847T394 857V941Q394 954 405 954H466Q477 954 477 942V859Z" />
<glyph unicode="&#xdd;" horiz-adv-x="675" d="M624 742Q631 742 633 738T632 728L394 330Q390 324 389 318T388 297V17Q388 0 369 0H309Q299 0 296 4T293 15V293Q293 303 291 308T285 320L44 726Q40 733 42 737T55 742H127Q136 742 140 740T148 730L334 410Q340
399 345 399T356 408L541 730Q545 738 549 740T562 742H624V742ZM473 915Q477 902 462 897L234 828Q227 827 224 828T218 836L210 858Q206 869 214 872L446 965Q455 968 458 960L473 915Z" />
<glyph unicode="&#xde;" horiz-adv-x="693" d="M640 385Q640 311 606 264T512 194T376 171H202Q193 171 193 161V15Q193 0 178 0H110Q103 0 100 3T97 13V728Q97 742 109 742H181Q193 742 193 729V594Q193 587 200 587H364Q443 587 505 566T604 500T640 385V385ZM541
386Q541 455 492 484T360 514H206Q193 514 193 502V257Q193 244 202 244H366Q446 244 493 278T541 386V386Z" />
<glyph unicode="&#xdf;" horiz-adv-x="608" d="M320 742Q383 742 421 722T477 670T495 601Q495 563 479 538T436 496T374 463Q340 444 327 434T313 404Q313 385 325 377T372 357Q401 347 434 333T496 299T543 245T562 164Q562 107 536 68T464 10T363 -10Q328 -10
293 -2T232 20Q223 25 227 34L250 76Q254 82 263 77Q283 66 304 59T356 51Q414 51 448 78T483 156Q483 193 465 215T418 251T353 276Q327 286 302 298T260 332T244 389Q244 428 266 452T332 502Q352 514 371 526T402 556T415 600Q415 637 389 658T312 680Q252 680
215 644T178 535V13Q180 0 168 0H105Q95 0 95 11V448Q95 458 87 458H35Q24 458 24 468V510Q24 514 26 517T35 521H86Q92 521 93 524T94 531Q95 578 109 616T152 683T223 726T320 742V742Z" />
<glyph unicode="&#xe0;" horiz-adv-x="548" d="M382 64Q345 28 302 9T204 -10Q126 -10 82 30T37 135Q37 188 67 226T156 287T301 315L379 321Q385 322 390 325T395 336V363Q395 417 362 448T271 480Q227 480 192 460T128 400Q124 395 122 394T113 394L59 412Q56
414 55 417T57 428Q87 480 141 510T275 540Q342 540 386 520T453 461T476 369V15Q476 6 473 3T463 0H412Q405 0 402 4T398 16L397 62Q394 76 382 64V64ZM395 254Q395 271 381 270L315 264Q269 262 233 253T172 228T134 193T121 145Q121 101 151 77T234 52Q266 52
295 63T347 93Q370 112 382 132T395 171V254V254ZM160 746Q164 754 172 751L404 658Q412 655 408 644L400 622Q398 616 395 615T384 614L156 683Q141 688 145 701L160 746V746Z" />
<glyph unicode="&#xe1;" horiz-adv-x="548" d="M382 64Q345 28 302 9T204 -10Q126 -10 82 30T37 135Q37 188 67 226T156 287T301 315L379 321Q385 322 390 325T395 336V363Q395 417 362 448T271 480Q227 480 192 460T128 400Q124 395 122 394T113 394L59 412Q56
414 55 417T57 428Q87 480 141 510T275 540Q342 540 386 520T453 461T476 369V15Q476 6 473 3T463 0H412Q405 0 402 4T398 16L397 62Q394 76 382 64V64ZM395 254Q395 271 381 270L315 264Q269 262 233 253T172 228T134 193T121 145Q121 101 151 77T234 52Q266 52
295 63T347 93Q370 112 382 132T395 171V254V254ZM406 703Q410 690 395 685L167 616Q160 615 157 616T151 624L143 646Q139 657 147 660L379 753Q388 756 391 748L406 703Z" />
<glyph unicode="&#xe2;" horiz-adv-x="548" d="M382 64Q345 28 302 9T204 -10Q126 -10 82 30T37 135Q37 188 67 226T156 287T301 315L379 321Q385 322 390 325T395 336V363Q395 417 362 448T271 480Q227 480 192 460T128 400Q124 395 122 394T113 394L59 412Q56
414 55 417T57 428Q87 480 141 510T275 540Q342 540 386 520T453 461T476 369V15Q476 6 473 3T463 0H412Q405 0 402 4T398 16L397 62Q394 76 382 64V64ZM395 254Q395 271 381 270L315 264Q269 262 233 253T172 228T134 193T121 145Q121 101 151 77T234 52Q266 52
295 63T347 93Q370 112 382 132T395 171V254V254ZM282 687Q275 695 272 695T259 687L202 637Q196 633 193 632T184 631H130Q123 631 123 634T127 643L230 734Q235 739 240 742T255 745H294Q301 745 305 742T313 735L415 643Q428 631 413 631H355Q349 631 345 632T336
637L282 687Z" />
<glyph unicode="&#xe3;" horiz-adv-x="548" d="M382 64Q345 28 302 9T204 -10Q126 -10 82 30T37 135Q37 188 67 226T156 287T301 315L379 321Q385 322 390 325T395 336V363Q395 417 362 448T271 480Q227 480 192 460T128 400Q124 395 122 394T113 394L59 412Q56
414 55 417T57 428Q87 480 141 510T275 540Q342 540 386 520T453 461T476 369V15Q476 6 473 3T463 0H412Q405 0 402 4T398 16L397 62Q394 76 382 64V64ZM395 254Q395 271 381 270L315 264Q269 262 233 253T172 228T134 193T121 145Q121 101 151 77T234 52Q266 52
295 63T347 93Q370 112 382 132T395 171V254V254ZM413 677Q402 670 384 663T337 655Q311 655 291 661T252 674T210 681Q188 681 176 674T150 660Q145 657 142 657T136 665L126 691Q125 697 125 699T130 706Q146 718 163 727T206 736Q231 736 252 730T295 716T338
708Q357 708 369 714T395 728Q401 731 405 731T411 723L421 692Q423 685 413 677V677Z" />
<glyph unicode="&#xe4;" horiz-adv-x="548" d="M382 64Q345 28 302 9T204 -10Q126 -10 82 30T37 135Q37 188 67 226T156 287T301 315L379 321Q385 322 390 325T395 336V363Q395 417 362 448T271 480Q227 480 192 460T128 400Q124 395 122 394T113 394L59 412Q56
414 55 417T57 428Q87 480 141 510T275 540Q342 540 386 520T453 461T476 369V15Q476 6 473 3T463 0H412Q405 0 402 4T398 16L397 62Q394 76 382 64V64ZM395 254Q395 271 381 270L315 264Q269 262 233 253T172 228T134 193T121 145Q121 101 151 77T234 52Q266 52
295 63T347 93Q370 112 382 132T395 171V254V254ZM240 647Q240 638 237 635T223 632H170Q162 632 159 635T156 645V729Q156 742 167 742H229Q240 742 240 730V647ZM386 647Q386 638 383 635T369 632H317Q308 632 306 635T303 645V729Q303 742 314 742H375Q386 742
386 730V647Z" />
<glyph unicode="&#xe5;" horiz-adv-x="548" d="M382 64Q345 28 302 9T204 -10Q126 -10 82 30T37 135Q37 188 67 226T156 287T301 315L379 321Q385 322 390 325T395 336V363Q395 417 362 448T271 480Q227 480 192 460T128 400Q124 395 122 394T113 394L59 412Q56
414 55 417T57 428Q87 480 141 510T275 540Q342 540 386 520T453 461T476 369V15Q476 6 473 3T463 0H412Q405 0 402 4T398 16L397 62Q394 76 382 64V64ZM395 254Q395 271 381 270L315 264Q269 262 233 253T172 228T134 193T121 145Q121 101 151 77T234 52Q266 52
295 63T347 93Q370 112 382 132T395 171V254V254ZM376 698Q376 653 346 623T271 593Q227 593 197 624T167 700Q167 728 181 751T219 787T271 801Q301 801 324 787T362 750T376 698V698ZM326 697Q326 721 310 737T270 753Q248 753 231 737T214 697Q214 675 231 658T270
641Q294 641 310 658T326 697V697Z" />
<glyph unicode="&#xe6;" horiz-adv-x="923" d="M495 246Q483 246 480 242T476 224Q476 192 489 162T526 107T581 68T649 54Q692 54 720 66T770 97T807 137Q811 141 813 141T821 140L862 119Q870 115 863 105Q841 69 808 43T733 4T640 -10Q585 -10 546 7T479 50T435
98Q432 102 428 98Q407 73 378 48T307 7T205 -10Q125 -10 81 30T37 138Q37 214 99 259T289 314L377 321Q385 322 390 325T395 336V363Q395 417 363 448T267 480Q227 480 192 460T127 400Q123 394 120 393T111 394L59 412Q56 414 56 418T57 428Q79 464 109 489T181
527T274 540Q346 540 390 516T452 443Q483 491 531 515T642 540Q713 540 767 508T852 416T882 268Q882 258 879 253T864 247L495 246V246ZM642 480Q596 480 560 459T501 397T478 303L781 302Q792 302 795 305T798 317Q798 360 778 397T724 457T642 480V480ZM395
252Q395 260 392 263T379 267L306 261Q247 257 206 242T144 203T122 143Q122 101 151 75T234 51Q279 53 315 69T373 113T395 172V252V252Z" />
<glyph unicode="&#xe7;" horiz-adv-x="542" d="M297 540Q349 540 388 524T456 479T504 416Q510 404 499 401L444 388Q437 385 431 394Q411 423 392 441T350 468T302 478Q251 478 213 453T153 379T132 265Q132 198 153 150T213 77T304 52Q352 52 387 76T451 146Q454
151 456 151T464 150L507 134Q514 131 511 121Q496 95 476 71T430 29T370 1T297 -10Q223 -10 167 24T78 120T46 263Q46 345 78 407T167 504T297 540V540ZM388 -131Q388 -157 373 -174T334 -200T279 -210Q254 -210 232 -205T191 -188Q185 -184 187 -179L198 -153Q201
-148 207 -151Q219 -159 233 -164T269 -170Q298 -170 312 -161T326 -132Q326 -109 307 -98T245 -86Q240 -86 239 -85T239 -80L276 5H323L300 -52Q298 -57 304 -57Q336 -59 354 -70T380 -98T388 -131V-131Z" />
<glyph unicode="&#xe8;" horiz-adv-x="581" d="M133 232Q133 183 156 143T219 78T308 54Q358 54 397 74T464 137Q468 141 470 141T478 140L520 119Q529 114 522 105Q495 65 463 40T390 2T300 -10Q226 -10 169 24T79 119T46 260Q46 347 79 409T170 506T299 540Q372
540 426 508T510 415T540 268Q540 261 539 254T525 247H142Q138 247 136 243T133 232V232ZM439 302Q450 302 453 304T456 316Q456 359 438 396T385 457T301 480Q247 480 210 455T154 388T135 302H439ZM187 746Q191 754 199 751L431 658Q439 655 435 644L427 622Q425
616 422 615T411 614L183 683Q168 688 172 701L187 746V746Z" />
<glyph unicode="&#xe9;" horiz-adv-x="581" d="M133 232Q133 183 156 143T219 78T308 54Q358 54 397 74T464 137Q468 141 470 141T478 140L520 119Q529 114 522 105Q495 65 463 40T390 2T300 -10Q226 -10 169 24T79 119T46 260Q46 347 79 409T170 506T299 540Q372
540 426 508T510 415T540 268Q540 261 539 254T525 247H142Q138 247 136 243T133 232V232ZM439 302Q450 302 453 304T456 316Q456 359 438 396T385 457T301 480Q247 480 210 455T154 388T135 302H439ZM433 703Q437 690 422 685L194 616Q187 615 184 616T178 624L170
646Q166 657 174 660L406 753Q415 756 418 748L433 703Z" />
<glyph unicode="&#xea;" horiz-adv-x="581" d="M133 232Q133 183 156 143T219 78T308 54Q358 54 397 74T464 137Q468 141 470 141T478 140L520 119Q529 114 522 105Q495 65 463 40T390 2T300 -10Q226 -10 169 24T79 119T46 260Q46 347 79 409T170 506T299 540Q372
540 426 508T510 415T540 268Q540 261 539 254T525 247H142Q138 247 136 243T133 232V232ZM439 302Q450 302 453 304T456 316Q456 359 438 396T385 457T301 480Q247 480 210 455T154 388T135 302H439ZM308 687Q301 695 298 695T285 687L228 637Q222 633 219 632T210
631H156Q149 631 149 634T153 643L256 734Q261 739 266 742T281 745H320Q327 745 331 742T339 735L441 643Q454 631 439 631H381Q375 631 371 632T362 637L308 687Z" />
<glyph unicode="&#xeb;" horiz-adv-x="581" d="M133 232Q133 183 156 143T219 78T308 54Q358 54 397 74T464 137Q468 141 470 141T478 140L520 119Q529 114 522 105Q495 65 463 40T390 2T300 -10Q226 -10 169 24T79 119T46 260Q46 347 79 409T170 506T299 540Q372
540 426 508T510 415T540 268Q540 261 539 254T525 247H142Q138 247 136 243T133 232V232ZM439 302Q450 302 453 304T456 316Q456 359 438 396T385 457T301 480Q247 480 210 455T154 388T135 302H439ZM266 647Q266 638 263 635T249 632H196Q188 632 185 635T182
645V729Q182 742 193 742H255Q266 742 266 730V647ZM412 647Q412 638 409 635T395 632H343Q334 632 332 635T329 645V729Q329 742 340 742H401Q412 742 412 730V647Z" />
<glyph unicode="&#xec;" horiz-adv-x="239" d="M161 17Q161 7 158 4T143 0H92Q83 0 80 3T77 14V516Q77 530 89 530H150Q161 530 161 517V17ZM9 746Q13 754 21 751L253 658Q261 655 257 644L249 622Q247 616 244 615T233 614L5 683Q-10 688 -6 701L9 746V746Z" />
<glyph unicode="&#xed;" horiz-adv-x="239" d="M161 17Q161 7 158 4T143 0H92Q83 0 80 3T77 14V516Q77 530 89 530H150Q161 530 161 517V17ZM255 703Q259 690 244 685L16 616Q9 615 6 616T0 624L-8 646Q-12 657 -4 660L228 753Q237 756 240 748L255 703Z" />
<glyph unicode="&#xee;" horiz-adv-x="239" d="M161 17Q161 7 158 4T143 0H92Q83 0 80 3T77 14V516Q77 530 89 530H150Q161 530 161 517V17ZM131 687Q124 695 121 695T108 687L51 637Q45 633 42 632T33 631H-21Q-28 631 -28 634T-24 643L79 734Q84 739 89 742T104
745H143Q150 745 154 742T162 735L264 643Q277 631 262 631H204Q198 631 194 632T185 637L131 687Z" />
<glyph unicode="&#xef;" horiz-adv-x="239" d="M161 17Q161 7 158 4T143 0H92Q83 0 80 3T77 14V516Q77 530 89 530H150Q161 530 161 517V17ZM89 647Q89 638 86 635T72 632H19Q11 632 8 635T5 645V729Q5 742 16 742H78Q89 742 89 730V647ZM235 647Q235 638 232
635T218 632H166Q157 632 155 635T152 645V729Q152 742 163 742H224Q235 742 235 730V647Z" />
<glyph unicode="&#xf0;" horiz-adv-x="599" d="M552 262Q552 182 522 121T434 25T298 -10Q223 -10 167 24T78 117T46 252Q46 330 78 390T166 485T293 520Q332 520 364 507T419 471Q398 516 364 556T277 632L129 548Q120 543 113 554L102 571Q99 576 100 579T104
585L236 658Q212 671 187 683T131 707Q127 709 127 712T130 719L166 747Q171 750 174 751T185 749Q218 738 247 725T302 696L398 750Q405 755 410 748L424 722Q428 716 422 712L344 669Q455 594 503 490T552 262V262ZM301 53Q350 53 387 79T445 150T466 255Q466
314 445 360T386 432T300 458Q252 458 214 432T154 359T132 255Q132 196 153 151T213 79T301 53V53Z" />
<glyph unicode="&#xf1;" horiz-adv-x="584" d="M91 0Q77 0 77 13V517Q77 530 88 530H148Q159 530 159 519V461Q159 456 161 455T168 458Q201 484 229 502T288 530T352 540Q430 540 471 498T513 389V16Q513 0 498 0H442Q435 0 432 3T429 13V370Q429 419 404 446T325
474Q296 474 271 465T219 438T161 393V15Q161 0 146 0H91V0ZM444 677Q433 670 415 663T368 655Q342 655 322 661T283 674T241 681Q219 681 207 674T181 660Q176 657 173 657T167 665L157 691Q156 697 156 699T161 706Q177 718 194 727T237 736Q262 736 283 730T326
716T369 708Q388 708 400 714T426 728Q432 731 436 731T442 723L452 692Q454 685 444 677V677Z" />
<glyph unicode="&#xf2;" horiz-adv-x="599" d="M299 -10Q224 -10 167 24T78 120T46 262Q46 345 78 407T168 505T300 540Q376 540 432 505T520 407T552 263Q552 183 520 122T432 25T299 -10V-10ZM301 53Q353 53 390 78T446 151T466 265Q466 331 446 378T389 452T300
478Q249 478 211 452T153 379T132 265Q132 200 152 152T211 79T301 53V53ZM189 746Q193 754 201 751L433 658Q441 655 437 644L429 622Q427 616 424 615T413 614L185 683Q170 688 174 701L189 746V746Z" />
<glyph unicode="&#xf3;" horiz-adv-x="599" d="M299 -10Q224 -10 167 24T78 120T46 262Q46 345 78 407T168 505T300 540Q376 540 432 505T520 407T552 263Q552 183 520 122T432 25T299 -10V-10ZM301 53Q353 53 390 78T446 151T466 265Q466 331 446 378T389 452T300
478Q249 478 211 452T153 379T132 265Q132 200 152 152T211 79T301 53V53ZM435 703Q439 690 424 685L196 616Q189 615 186 616T180 624L172 646Q168 657 176 660L408 753Q417 756 420 748L435 703Z" />
<glyph unicode="&#xf4;" horiz-adv-x="599" d="M299 -10Q224 -10 167 24T78 120T46 262Q46 345 78 407T168 505T300 540Q376 540 432 505T520 407T552 263Q552 183 520 122T432 25T299 -10V-10ZM301 53Q353 53 390 78T446 151T466 265Q466 331 446 378T389 452T300
478Q249 478 211 452T153 379T132 265Q132 200 152 152T211 79T301 53V53ZM311 687Q304 695 301 695T288 687L231 637Q225 633 222 632T213 631H159Q152 631 152 634T156 643L259 734Q264 739 269 742T284 745H323Q330 745 334 742T342 735L444 643Q457 631 442
631H384Q378 631 374 632T365 637L311 687Z" />
<glyph unicode="&#xf5;" horiz-adv-x="599" d="M299 -10Q224 -10 167 24T78 120T46 262Q46 345 78 407T168 505T300 540Q376 540 432 505T520 407T552 263Q552 183 520 122T432 25T299 -10V-10ZM301 53Q353 53 390 78T446 151T466 265Q466 331 446 378T389 452T300
478Q249 478 211 452T153 379T132 265Q132 200 152 152T211 79T301 53V53ZM441 677Q430 670 412 663T365 655Q339 655 319 661T280 674T238 681Q216 681 204 674T178 660Q173 657 170 657T164 665L154 691Q153 697 153 699T158 706Q174 718 191 727T234 736Q259
736 280 730T323 716T366 708Q385 708 397 714T423 728Q429 731 433 731T439 723L449 692Q451 685 441 677V677Z" />
<glyph unicode="&#xf6;" horiz-adv-x="599" d="M299 -10Q224 -10 167 24T78 120T46 262Q46 345 78 407T168 505T300 540Q376 540 432 505T520 407T552 263Q552 183 520 122T432 25T299 -10V-10ZM301 53Q353 53 390 78T446 151T466 265Q466 331 446 378T389 452T300
478Q249 478 211 452T153 379T132 265Q132 200 152 152T211 79T301 53V53ZM269 647Q269 638 266 635T252 632H199Q191 632 188 635T185 645V729Q185 742 196 742H258Q269 742 269 730V647ZM415 647Q415 638 412 635T398 632H346Q337 632 335 635T332 645V729Q332
742 343 742H404Q415 742 415 730V647Z" />
<glyph unicode="&#xf7;" horiz-adv-x="558" d="M335 158Q335 143 318 143H238Q224 143 224 156V238Q224 250 233 250H326Q335 250 335 239V158ZM496 353Q496 340 480 340L75 339Q68 339 65 342T62 351V394Q62 406 71 406H486Q496 406 496 396V353ZM335 510Q335
495 318 495H238Q224 495 224 509V591Q224 603 233 603H326Q335 603 335 592V510Z" />
<glyph unicode="&#xf8;" horiz-adv-x="583" d="M63 6Q57 0 51 0T39 6L26 20Q14 33 26 44L520 523Q531 534 540 524L559 505Q567 495 559 487L63 6ZM298 -10Q222 -10 165 24T77 120T45 262Q45 345 77 407T166 505T299 540Q375 540 431 505T519 407T551 263Q551
183 519 122T430 25T298 -10V-10ZM299 53Q352 53 389 78T445 151T465 265Q465 331 445 378T388 452T299 478Q247 478 210 452T152 379T131 265Q131 200 151 152T209 79T299 53V53Z" />
<glyph unicode="&#xf9;" horiz-adv-x="579" d="M257 56Q300 56 339 79T418 143V515Q418 530 434 530H489Q503 530 503 516L501 13Q501 0 490 0H432Q421 0 421 11V70Q421 75 419 76T412 73Q357 26 315 8T230 -10Q184 -10 148 9T91 62T70 143V514Q70 530 85 530H141Q154
530 154 516V165Q154 116 181 86T257 56V56ZM165 746Q169 754 177 751L409 658Q417 655 413 644L405 622Q403 616 400 615T389 614L161 683Q146 688 150 701L165 746V746Z" />
<glyph unicode="&#xfa;" horiz-adv-x="579" d="M257 56Q300 56 339 79T418 143V515Q418 530 434 530H489Q503 530 503 516L501 13Q501 0 490 0H432Q421 0 421 11V70Q421 75 419 76T412 73Q357 26 315 8T230 -10Q184 -10 148 9T91 62T70 143V514Q70 530 85 530H141Q154
530 154 516V165Q154 116 181 86T257 56V56ZM411 703Q415 690 400 685L172 616Q165 615 162 616T156 624L148 646Q144 657 152 660L384 753Q393 756 396 748L411 703Z" />
<glyph unicode="&#xfb;" horiz-adv-x="579" d="M257 56Q300 56 339 79T418 143V515Q418 530 434 530H489Q503 530 503 516L501 13Q501 0 490 0H432Q421 0 421 11V70Q421 75 419 76T412 73Q357 26 315 8T230 -10Q184 -10 148 9T91 62T70 143V514Q70 530 85 530H141Q154
530 154 516V165Q154 116 181 86T257 56V56ZM287 687Q280 695 277 695T264 687L207 637Q201 633 198 632T189 631H135Q128 631 128 634T132 643L235 734Q240 739 245 742T260 745H299Q306 745 310 742T318 735L420 643Q433 631 418 631H360Q354 631 350 632T341
637L287 687Z" />
<glyph unicode="&#xfc;" horiz-adv-x="579" d="M257 56Q300 56 339 79T418 143V515Q418 530 434 530H489Q503 530 503 516L501 13Q501 0 490 0H432Q421 0 421 11V70Q421 75 419 76T412 73Q357 26 315 8T230 -10Q184 -10 148 9T91 62T70 143V514Q70 530 85 530H141Q154
530 154 516V165Q154 116 181 86T257 56V56ZM245 647Q245 638 242 635T228 632H175Q167 632 164 635T161 645V729Q161 742 172 742H234Q245 742 245 730V647ZM391 647Q391 638 388 635T374 632H322Q313 632 311 635T308 645V729Q308 742 319 742H380Q391 742 391
730V647Z" />
<glyph unicode="&#xfd;" horiz-adv-x="530" d="M106 -165Q77 -165 61 -163T45 -152V-113Q45 -106 50 -103T73 -100H136Q158 -100 176 -86T206 -49T222 -5T219 35L28 513Q26 520 28 525T39 530H101Q107 530 111 528T117 519L266 131Q270 122 275 122T284 134L431
519Q434 525 437 527T445 530H492Q499 530 502 526T502 515L282 -47Q268 -83 251 -106T213 -141T165 -159T106 -165V-165ZM409 703Q413 690 398 685L170 616Q163 615 160 616T154 624L146 646Q142 657 150 660L382 753Q391 756 394 748L409 703Z" />
<glyph unicode="&#xfe;" horiz-adv-x="595" d="M146 742Q160 742 160 727V473Q160 465 163 465T173 469Q184 481 203 497T252 527T330 540Q391 540 440 511T519 422T549 273Q549 183 520 120T440 24T319 -10Q273 -10 238 4T177 40Q168 48 165 47T161 34V-152Q161
-165 150 -165H88Q77 -165 77 -152V726Q77 735 80 738T93 742H146V742ZM161 117Q192 87 224 69T297 51Q345 51 382 76T441 150T463 272Q463 345 441 391T383 458T302 479Q261 479 229 461T179 417T161 364V117V117Z" />
<glyph unicode="&#xff;" horiz-adv-x="530" d="M106 -165Q77 -165 61 -163T45 -152V-113Q45 -106 50 -103T73 -100H136Q158 -100 176 -86T206 -49T222 -5T219 35L28 513Q26 520 28 525T39 530H101Q107 530 111 528T117 519L266 131Q270 122 275 122T284 134L431
519Q434 525 437 527T445 530H492Q499 530 502 526T502 515L282 -47Q268 -83 251 -106T213 -141T165 -159T106 -165V-165ZM243 647Q243 638 240 635T226 632H173Q165 632 162 635T159 645V729Q159 742 170 742H232Q243 742 243 730V647ZM389 647Q389 638 386 635T372
632H320Q311 632 309 635T306 645V729Q306 742 317 742H378Q389 742 389 730V647Z" />
<glyph unicode="&#x2013;" horiz-adv-x="558" d="M496 238Q496 224 480 224H75Q68 224 65 226T62 236V280Q62 291 71 291L486 292Q496 292 496 282V238Z" />
<glyph unicode="&#x2014;" horiz-adv-x="880" d="M818 238Q818 224 802 224H75Q68 224 65 226T62 236V280Q62 291 71 291L808 292Q818 292 818 282V238Z" />
<glyph unicode="&#x2018;" horiz-adv-x="222" d="M166 742Q171 742 173 739T174 731L129 635Q126 627 127 623T135 617H152Q159 616 161 614T164 605V519Q164 509 155 509H61Q52 509 52 518V598Q52 602 55 606L130 733Q134 738 139 740T149 742H166V742Z" />
<glyph unicode="&#x2019;" horiz-adv-x="222" d="M56 509Q51 509 49 513T48 520L92 615Q96 624 95 628T87 634H70Q64 635 61 637T58 646V732Q58 742 67 742H161Q170 742 170 733V653Q170 649 167 645L92 518Q89 513 84 511T72 509H56V509Z" />
<glyph unicode="&#x201a;" horiz-adv-x="222" d="M56 -125Q51 -125 49 -122T48 -114L92 -19Q96 -10 95 -6T87 -1L70 0Q64 1 61 3T58 11V98Q58 108 67 108H161Q170 108 170 99V19Q170 15 167 10L92 -116Q89 -121 84 -123T72 -125H56V-125Z" />
<glyph unicode="&#x201c;" horiz-adv-x="398" d="M238 509Q229 509 229 518V598Q229 602 231 606L306 733Q310 738 315 740T326 742H342Q347 742 349 739T350 731L306 635Q302 627 303 623T311 617H328Q335 616 337 614T340 605V519Q340 509 331 509H238V509ZM61
509Q52 509 52 518V598Q52 602 55 606L130 733Q134 738 139 740T149 742H166Q171 742 173 739T174 731L129 635Q126 627 127 623T135 617H152Q159 616 161 614T164 605V519Q164 509 155 509H61V509Z" />
<glyph unicode="&#x201d;" horiz-adv-x="399" d="M232 509Q227 509 225 513T224 520L269 615Q272 624 271 628T263 634H247Q240 635 237 637T234 646V732Q234 742 243 742H337Q346 742 346 733V653Q346 649 343 645L268 518Q265 513 260 511T249 509H232V509ZM56
509Q51 509 49 513T48 520L92 615Q96 624 95 628T87 634H70Q64 635 61 637T58 646V732Q58 742 67 742H161Q170 742 170 733V653Q170 649 167 645L92 518Q89 513 84 511T72 509H56V509Z" />
<glyph unicode="&#x201e;" horiz-adv-x="399" d="M232 -125Q227 -125 225 -122T224 -114L268 -19Q272 -10 271 -6T263 -1L246 0Q240 1 237 3T234 11V98Q234 108 243 108H337Q346 108 346 99V19Q346 15 343 10L268 -116Q265 -121 260 -123T248 -125H232V-125ZM56
-125Q51 -125 49 -122T48 -114L92 -19Q96 -10 95 -6T87 -1L70 0Q64 1 61 3T58 11V98Q58 108 67 108H161Q170 108 170 99V19Q170 15 167 10L92 -116Q89 -121 84 -123T72 -125H56V-125Z" />
<glyph unicode="&#x2022;" horiz-adv-x="311" d="M155 282Q129 282 108 295T73 329T60 377Q60 403 73 424T107 459T155 472Q181 472 202 459T237 425T250 377Q250 351 237 330T203 295T155 282V282Z" />
<glyph unicode="&#x2039;" horiz-adv-x="267" d="M217 80Q221 73 208 73H179Q171 73 169 79L43 246Q35 257 42 267L169 444Q172 448 174 449T179 450H210Q214 450 216 448T217 440L118 265Q114 256 118 249L217 80Z" />
<glyph unicode="&#x203a;" horiz-adv-x="268" d="M150 249Q154 257 150 265L51 440Q49 445 51 447T58 450H89Q92 450 94 449T99 444L226 267Q233 257 225 246L99 79Q97 73 89 73H60Q48 73 51 80L150 249V249Z" />
</font>
</defs>
</svg>
